<svg xmlns="http://www.w3.org/2000/svg">
<defs>
<font
       horiz-adv-x="1000"
       id="font2"
       inkscape:label="eschvafutura">
      <font-face
         units-per-em="1000"
         ascent="750"
         cap-height="600"
         x-height="400"
         descent="200"
         id="font-face2"
         font-family="Futura" />
      <missing-glyph
         d="M0,0h1000v1000h-1000z"
         id="missing-glyph2" />
      <glyph
         glyph-name=""
         unicode=" "
         id="glyph2" />
      <glyph
         glyph-name=""
         unicode="!"
         id="glyph3" />
      <glyph
         glyph-name=""
         unicode="&quot;"
         id="glyph4" />
      <glyph
         glyph-name=""
         unicode="#"
         id="glyph5" />
      <glyph
         glyph-name=""
         unicode="$"
         id="glyph6"
         d="m 489.65125,569.05761 c -0.10129,-0.0723 -0.15916,-0.13022 -0.25755,-0.20835 28.61036,-1.8063 51.27372,-25.50447 51.26981,-54.57118 0.004,-30.18082 -24.41481,-54.64352 -54.57132,-54.74379 -0.10128,-16.62404 -0.17508,-33.87675 -0.17508,-52.37581 v -100.4302 l 0.0145,-58.52944 0.15337,0.0145 21.34799,2.0229 c 29.29547,2.76645 51.52273,9.83581 74.58774,23.73333 0.74949,0.44853 1.36876,0.8826 2.09162,1.33114 22.37499,13.79667 33.55945,25.75478 47.27654,50.49152 14.07477,25.3825 19.13468,48.39036 19.0661,86.68808 -0.10128,53.23917 -16.48513,92.09496 -50.64721,120.04944 -5.60655,4.58751 -11.03644,8.53361 -16.59423,11.97895 -16.32815,10.12229 -33.86966,15.92229 -61.0531,20.9676 -9.30206,1.72643 -15.54727,2.86007 -20.13796,3.57816 z m -6.75886,-14.38179 c -8.42741,-0.0723 -23.76444,-0.13022 -27.86449,-0.93325 -24.47066,-4.79702 -39.81203,-13.89187 -54.64048,-26.7064 -16.30587,-14.09198 -26.54319,-32.11024 -31.1485,-54.89947 h 112.70287 c 9.60141,0.86379 20.16197,3.32379 27.58784,9.00573 10.15702,7.77182 15.0695,20.108 15.07312,31.82318 0.002,23.0365 -18.67342,41.71281 -41.71036,41.71035 z M 368.01167,448.4896 v -1.76303 H 330 v -56.80098 h 38.01167 V 179.41993 l 48.7282,-0.67425 c 37.76484,-0.52522 48.97461,0.0289 49.81757,2.50688 0.60191,1.75262 0.8363,145.13388 0.50352,232.09556 l -0.11575,35.14191 z" />
      <glyph
         glyph-name=""
         unicode="%"
         id="glyph7" />
      <glyph
         glyph-name=""
         unicode="&amp;"
         id="glyph8" />
      <glyph
         glyph-name=""
         unicode="'"
         id="glyph9"
         d="M 555.90889,946 466.33842,945.77017 429,834.9441 l 50.508,0.6271 z" />
      <glyph
         glyph-name=""
         unicode="("
         id="glyph10" />
      <glyph
         glyph-name=""
         unicode=")"
         id="glyph11" />
      <glyph
         glyph-name=""
         unicode="*"
         id="glyph12" />
      <glyph
         glyph-name=""
         unicode="+"
         id="glyph13" />
      <glyph
         glyph-name=""
         unicode=","
         id="glyph14" />
      <glyph
         glyph-name=""
         unicode="-"
         id="glyph15"
         d="M 483.71289,633 A 70.71241,70.71241 0 0 1 413,562.28711 70.71241,70.71241 0 0 1 483.71289,491.57422 70.71241,70.71241 0 0 1 554.42578,562.28711 70.71241,70.71241 0 0 1 483.71289,633 Z" />
      <glyph
         glyph-name=""
         unicode="."
         id="glyph16"
         d="m 445.54261,34.05876 c -0.49659,4.9989 -0.68807,212.00373 -0.42356,460.01361 L 445.60394,945 h 41.05566 41.05552 V 486.91463 28.83007 l -40.63359,-1.92596 c -31.49257,-1.49622 -40.83739,0.12981 -41.53924,7.15465 z" />
      <glyph
         glyph-name=""
         unicode="/"
         id="glyph17" />
      <glyph
         glyph-name=""
         unicode="0"
         id="glyph18"
         d="m 400.61505,801.04023 v -0.67516 h -1.11657 V 527.32637 404.647 c 0.008,-24.78372 -0.0725,-53.72125 0,-72.93172 v -77.42761 l 19.77558,-0.26862 c 7.50496,-0.37316 18.66003,-0.45592 32.08773,-0.44431 0.16987,1.5e-4 0.41671,-1.4e-4 0.58806,0 l 30.38325,-0.44429 c 48.41893,-0.67372 71.11617,-0.29622 79.98409,1.7335 l 5.67141,0.0871 v 76.08093 72.93187 124.03102 273.03854 h -83.68634 z m -20.80401,-0.2962 -36.58347,-3.4676 C 293.42751,792.57393 255.67244,780.55624 216.4638,756.93176 175.88509,732.48185 156.5859,712.24935 132.51306,668.83782 108.586,625.6894 99.98551,586.57833 100.10212,521.47563 100.272,430.9733 128.15393,364.9219 186.22749,317.40188 c 37.53204,-30.71156 70.02747,-44.51081 131.96472,-56.00637 49.23989,-9.13944 51.54852,-9.30468 57.35801,-4.55498 1.23273,1.00622 2.33288,37.10952 3.11492,91.70835 -3.35522,-1.36342 -9.40632,-0.38478 -35.08474,4.37812 -40.40391,7.49915 -61.61245,16.51968 -86.09604,36.55402 -37.88328,30.99917 -56.06895,74.07295 -56.18264,133.1109 -0.0725,42.46876 5.51895,67.96859 21.12722,96.11595 15.70366,28.31886 28.30127,41.52585 54.77233,57.47563 25.57709,15.41094 50.20095,23.26059 82.68724,26.32819 l 19.92253,1.88058 z m 207.86429,-0.64612 v -94.67604 l 22.77273,-2.1447 c 32.48645,-3.06759 57.13964,-10.91724 82.71687,-26.32834 26.47107,-15.94948 39.03918,-29.15648 54.74285,-57.47562 15.60842,-28.14707 21.23264,-53.64692 21.1567,-96.11594 -0.11615,-59.03795 -18.29935,-102.14108 -56.18278,-133.14011 -24.48361,-20.03418 -45.69199,-29.02551 -86.0959,-36.52467 -32.12112,-5.96195 -33.61635,-6.06664 -37.40615,-2.96769 -0.21925,0.18149 -0.4385,2.43481 -0.64613,5.72992 0.78552,-59.04303 1.91355,-99.20546 3.20319,-100.25917 5.80964,-4.75027 8.11829,-4.58504 57.35816,4.55483 61.93724,11.49558 94.43268,25.29485 131.96473,56.00639 58.07339,47.52001 85.95476,113.57143 86.12537,204.07377 0.11614,65.10253 -8.48417,104.2136 -32.41094,147.36216 -24.07299,43.41153 -43.37218,63.64419 -83.9509,88.09396 -39.20834,23.62447 -76.9637,35.64215 -126.76361,40.34466 z m 0,-108.69236 V 531.76084 c 0,-60.39655 0.38912,-114.32907 0.96991,-157.70545 0.18584,-2.99689 0.38331,-5.0668 0.58805,-5.23044 3.44626,-2.81785 4.78527,-2.71854 33.99751,2.70328 36.74478,6.82006 56.04267,15.01384 78.30911,33.23378 34.45241,28.1915 50.99576,67.37183 51.09928,121.06302 0.0725,38.62292 -5.05157,61.82021 -19.24679,87.41821 -14.28145,25.75451 -25.70309,37.76944 -49.77696,52.27465 -23.26075,14.01546 -45.67936,21.15829 -75.22366,23.94825 z m -207.86429,-1.028 -18.10074,-1.7039 c -29.51133,-2.78676 -51.87143,-9.919 -75.10619,-23.91878 -24.04685,-14.48894 -35.51149,-26.49023 -49.77698,-52.21584 -14.17909,-25.56955 -19.25707,-48.72109 -19.18796,-87.30074 0.10171,-53.63137 16.6264,-92.75595 51.04047,-120.91623 22.24147,-18.1996 41.51727,-26.39193 78.22099,-33.2043 23.32695,-4.3292 28.83386,-5.23523 31.88196,-3.99611 0.63452,44.25221 1.02801,101.65623 1.02801,165.31596 z" />
      <glyph
         glyph-name=""
         unicode="1"
         id="glyph19"
         d="m 345.4856,802.29416 c -37.4958,-0.073 -61.33669,-0.24803 -62.46155,-0.48584 v 0.0293 c -3.17074,-0.65653 -3.89306,-9.42848 -3.22034,-38.89581 l 0.88267,-38.01256 h 205.99164 206.02026 v 38.41144 38.41143 l -202.80005,0.45812 c -55.76685,0.13136 -106.91829,0.15465 -144.41336,0.0875 z M 421.42479,666.2012 420.68656,463.42975 c -0.38662,-111.53283 -0.11673,-204.62623 0.65653,-206.87492 h -0.0293 c 1.0592,-3.17175 15.14466,-3.89306 62.6038,-3.21975 l 61.23571,0.85495 v 206.0201 205.9915 h -61.86263 z" />
      <glyph
         glyph-name=""
         unicode="2"
         id="glyph20"
         d="m 322.83921,800.21091 c -47.16148,-0.0727 -77.14428,-0.24694 -78.55791,-0.48371 -3.99675,-0.65365 -4.90809,-9.3589 -4.05718,-38.69748 l 1.10831,-37.84615 h 259.10748 259.10806 v 38.24343 38.24341 l -255.05089,0.45611 c -70.1417,0.13073 -134.49479,0.15403 -181.65641,0.0871 z M 338.35788,663.919 V 362.17016 L 498.62289,663.919 Z m 190.2526,0 -190.2526,-359.53965 0.70886,-51.49247 h 96.09087 L 658.88731,663.919 Z" />
      <glyph
         glyph-name=""
         unicode="3"
         id="glyph21"
         d="m 308.31927,800.72698 c -50.30245,-0.0728 -82.27558,-0.24746 -83.78302,-0.48472 -4.26362,-0.65503 -5.22082,-9.37847 -4.31862,-38.7784 l 1.16593,-37.92526 H 497.7501 774.11664 v 38.32337 38.32337 L 502.0715,800.6424 c -74.81282,0.13097 -143.44732,0.1543 -193.74932,0.0873 z M 480.57539,667.39102 566.17777,513.75634 673.55732,667.39102 Z m -161.76571,-2.3882 228.12103,-410.4983 H 672.53404 L 448.70575,665.00282 Z M 433.89407,399.97995 334.70244,253.90744 514.26498,250.92242 Z" />
      <glyph
         glyph-name=""
         unicode="4"
         id="glyph22"
         d="m 351.99129,800.72564 c -40.17034,-0.0731 -65.71862,-0.22064 -66.92262,-0.4588 -3.4019,-0.65752 -4.16945,-9.41448 -3.45158,-38.92646 l 0.94392,-38.07034 H 503.24916 723.9655 v 38.46984 38.46982 l -217.26301,0.45881 c -59.7439,0.13146 -114.53691,0.13146 -154.70726,0.0585 z M 382.89812,665.13927 V 459.06282 253.01501 l 62.49965,-0.85623 c 29.76477,-0.41499 46.5881,-0.31417 55.4501,0.56985 v -0.28786 l 117.94976,1.7407 V 325.3279 H 510.06611 c 0.11687,36.80542 0.11687,84.37148 -0.11687,136.95607 l -0.76711,202.85165 h -63.12752 z" />
      <glyph
         glyph-name=""
         unicode="5"
         id="glyph23"
         d="m 341.08567,800.60498 c -48.72255,-0.0731 -79.71241,-0.22052 -81.17777,-0.45858 -4.12312,-0.65718 -5.02843,-9.40946 -4.16183,-38.90578 l 1.11428,-38.07876 h 267.69117 267.69189 v 38.44955 38.4779 l -263.49867,0.43081 c -72.46564,0.13143 -138.93271,0.1548 -187.65483,0.0876 z m 208.2204,-135.85656 -27.61079,-2.59599 c -37.64474,-3.5546 -66.22802,-12.633 -95.86715,-30.49142 -30.67456,-18.48233 -45.23863,-33.78521 -63.43559,-66.60187 -18.08772,-32.61703 -24.58939,-62.19894 -24.50163,-111.41218 0.11677,-68.41378 21.19209,-118.33195 65.08993,-154.25415 28.37297,-23.21619 52.95405,-33.63844 99.77517,-42.32866 37.22252,-6.90854 38.96274,-7.0708 43.3553,-3.48011 1.7608,1.44139 3.22339,94.53205 3.22339,206.87975 z m 16.51459,0 143.01627,-169.28599 V 664.74842 Z M 708.83693,435.24965 565.82066,251.38833 h 143.01627 z" />
      <glyph
         glyph-name=""
         unicode="6"
         id="glyph24"
         d="m 323.71519,801.91109 c -48.20019,-0.0732 -78.82977,-0.24857 -80.27764,-0.48692 -4.08404,-0.65798 -5.00699,-9.4209 -4.13933,-38.9537 l 1.11566,-38.09701 h 264.82297 264.82221 v 38.49678 38.49692 l -260.68128,0.45911 c -71.68915,0.13157 -137.45818,0.15493 -185.65894,0.0877 z m 0.49713,-135.11005 V 460.58031 254.33108 l 62.57164,-0.85684 c 48.49131,-0.67409 62.88762,0.0293 63.97082,3.1987 0.75741,2.25029 1.07179,95.44627 0.63021,207.10593 l -0.73986,203.02217 H 387.4171 Z m 142.13515,-0.19877 V 462.49484 c 0,-112.25962 1.46453,-205.29561 3.22749,-206.73471 4.38791,-3.58822 6.1304,-3.47606 43.32304,3.42695 46.78376,8.68324 71.31994,19.12593 99.66924,42.32363 43.86522,35.89378 64.94566,85.76992 65.0562,154.1301 0.11701,49.17473 -6.40176,78.72917 -24.47479,111.32086 -18.18294,32.79056 -32.77754,48.07312 -63.42819,66.54122 -29.61583,17.84444 -58.11224,26.92015 -95.72818,30.47181 z" />
      <glyph
         glyph-name=""
         unicode="7"
         id="glyph25"
         d="M 381.40828,800.62344 V 576.90757 l 188.98237,223.71587 z m 210.80777,0 V 530.68098 c 0,-148.47508 1.88996,-271.5195 4.21806,-273.4241 5.8038,-4.74549 8.13189,-4.54446 57.32271,4.58604 61.87701,11.48455 94.36124,25.25442 131.85735,55.93612 58.01624,47.4736 85.83456,113.45882 85.99878,203.87203 0.1159,65.03878 -8.48076,104.12265 -32.38409,147.22835 -24.04901,43.36962 -43.28064,63.58291 -83.8191,88.00873 -39.16952,23.60115 -76.92639,35.6134 -126.67707,40.31017 z m -438.82607,-1.86851 -0.99136,-268.49861 c -0.54785,-147.68258 -0.16368,-270.95717 0.84933,-273.93385 1.42905,-4.20153 20.4488,-5.16565 84.58377,-4.2743 l 82.77135,1.16095 V 525.98219 798.75523 H 236.98211 Z M 381.40828,497.33438 V 254.34106 h 188.98237 z" />
      <glyph
         glyph-name=""
         unicode="8"
         id="glyph26"
         d="m 404.12105,800.73555 v -0.64739 h -1.11914 V 526.88382 404.10074 c 0.009,-24.7988 -0.058,-53.75394 0,-72.97604 v -77.44521 l 19.78805,-0.26854 1.35575,-0.029 c 7.6334,-0.35128 18.7325,-0.46594 32.16524,-0.44418 l 29.57874,-0.41223 c 48.44767,-0.67351 71.15871,-0.32369 80.03259,1.70514 l 5.67496,0.087 v 76.12212 c 0.0726,19.22327 -0.007,48.17493 0,72.97604 v 124.11538 273.20433 h -83.73752 z m -20.81677,-0.26854 -36.60523,-3.49909 c -49.83086,-4.70547 -87.6085,-16.73009 -126.84059,-40.36895 -40.60352,-24.46494 -59.9143,-44.70936 -84.00184,-88.14745 -23.94166,-43.17479 -32.54774,-82.30919 -32.43088,-147.45169 0.16402,-90.5576 28.06883,-156.64867 86.17771,-204.19755 37.55498,-30.73039 70.06976,-44.53764 132.04467,-56.04041 49.27012,-9.14503 51.57982,-9.31037 57.39283,-4.55742 2.33162,1.90589 4.26276,125.13909 4.26276,273.85129 z M 591.29501,799.7906 V 529.40879 c 0,-148.71191 1.93056,-271.94513 4.26333,-273.85114 5.81315,-4.75325 8.12272,-4.58747 57.39299,4.55741 61.97491,11.50263 94.48969,25.31003 132.04466,56.04028 58.10901,47.54901 86.00701,113.64009 86.17761,204.19769 0.1157,65.14248 -8.489,104.27674 -32.4304,147.45153 -24.08776,43.43824 -43.39826,63.68267 -84.00192,88.14745 -39.23239,23.63887 -77.01018,35.66376 -126.8406,40.3691 z" />
      <glyph
         glyph-name=""
         unicode="9"
         id="glyph27"
         d="M 288.16822,800.18711 V 527.01577 253.84427 l 82.87449,-1.14611 c 64.22958,-0.89336 83.29313,0.0582 84.72671,4.26269 1.0241,2.9812 1.42212,126.41868 0.85268,274.3179 l -0.99982,268.90836 h -83.72717 z m 188.2683,-0.29633 v -94.2518 l 21.25524,-2.02858 c 32.50214,-3.06909 57.13806,-10.92251 82.72749,-26.34115 26.48394,-15.95743 39.08757,-29.1707 54.7989,-57.50354 15.61605,-28.16085 21.24306,-53.67327 21.16694,-96.16272 -0.1162,-59.06655 -18.30818,-102.19079 -56.20999,-133.20485 -24.4956,-20.04408 -45.71424,-29.03969 -86.13777,-36.54245 -29.25482,-5.43031 -33.13475,-5.95397 -36.45427,-3.67511 0.78296,-56.0194 1.8656,-93.43559 3.1163,-94.45749 5.81249,-4.75297 8.12187,-4.58709 57.38601,4.55684 61.96757,11.50139 94.47842,25.3069 132.02897,56.03365 58.10187,47.54308 85.99645,113.62635 86.16713,204.17296 0.1162,65.13456 -8.48807,104.26425 -32.42659,147.43367 -24.08482,43.43307 -43.39311,63.67497 -83.99169,88.13703 -39.22775,23.6358 -77.00084,35.65939 -126.8254,40.36411 z m 2.32244,-108.27492 V 531.54065 c 0,-62.68471 0.4445,-119.03719 1.0575,-163.07367 3.01795,-2.07202 6.53619,-1.58568 33.13213,3.35118 36.74943,6.82075 56.04859,14.99811 78.31777,33.22031 34.45678,28.19526 50.99132,67.39468 51.09474,121.09266 0.0726,38.62765 -5.02969,61.82999 -19.22668,87.43133 -14.28341,25.75748 -25.75386,37.76365 -49.83066,52.27063 -23.26364,14.01731 -45.6534,21.14021 -75.20148,23.93039 z" />
      <glyph
         glyph-name=""
         unicode=":"
         id="glyph28" />
      <glyph
         glyph-name=""
         unicode=";"
         id="glyph29" />
      <glyph
         glyph-name=""
         unicode="&lt;"
         id="glyph30" />
      <glyph
         glyph-name=""
         unicode="="
         id="glyph31" />
      <glyph
         glyph-name=""
         unicode="&gt;"
         id="glyph32" />
      <glyph
         glyph-name=""
         unicode="?"
         id="glyph33" />
      <glyph
         glyph-name=""
         unicode="@"
         id="glyph34" />
      <glyph
         glyph-name=""
         unicode="A"
         id="glyph35"
         d="m 291,800 1.03202,-67.0711 126.33307,-238.75675 -40.90282,0.58844 -85.43025,160.84111 V 252.20239 h 214.26809 l -77.3263,145.57622 36.92151,-0.0302 80.51201,-145.54665 H 720.59776 L 419.51435,799.99849 Z" />
      <glyph
         glyph-name=""
         unicode="B"
         id="glyph36"
         d="M 475.83609,799 V 653.13036 c 0,-70.6757 0.97884,-130.60152 2.28037,-144.58337 V 404.04128 c 0,-81.39115 1.27817,-148.8301 2.83564,-149.87434 3.88183,-2.60096 5.42433,-2.49126 38.32369,2.51385 41.38263,6.2957 63.11738,13.84579 88.19409,30.66478 38.80114,26.02414 57.41617,62.19258 57.52931,111.75541 0.0748,35.65284 -5.67502,57.08075 -21.66124,80.71046 -15.99102,23.63675 -28.86622,34.71336 -55.6583,47.9997 5.84475,2.99803 11.56498,6.37907 17.48083,10.28979 38.80129,25.6495 57.41616,61.29815 57.52931,110.14751 0.0748,35.13976 -5.64539,56.25173 -21.63192,79.54124 -16.08411,23.43214 -28.98474,34.36417 -56.09697,47.56115 -26.19684,12.75142 -51.41305,19.2405 -84.68614,21.77815 z M 285.2119,798.70515 284.24803,531.3167 c -0.5433,-147.06385 -0.16463,-269.83241 0.84863,-272.79662 1.42335,-4.18148 20.38188,-5.12619 84.24776,-4.23865 l 82.40606,1.14048 V 527.07835 798.7056 h -83.25425 z" />
      <glyph
         glyph-name=""
         unicode="C"
         id="glyph37"
         d="M 482.36398,799 445.8513,795.56602 C 396.10794,790.87001 358.36601,778.86469 319.20171,755.26713 278.66928,730.84484 259.4212,710.63588 235.37536,667.27284 211.47605,624.17353 202.8847,585.10675 203.00117,520.07765 c 0.16981,-90.39992 27.99106,-156.37604 85.99846,-203.84271 37.48976,-30.67712 69.97726,-44.46007 131.84467,-55.94289 49.18373,-9.12888 51.49004,-9.3238 57.29314,-4.57849 2.32868,1.90445 4.22623,124.92186 4.22623,273.37515 z m 21.80775,0 188.96169,-223.68381 V 799 Z M 693.13342,495.74555 504.17173,252.80749 h 188.96169 z" />
      <glyph
         glyph-name=""
         unicode="D"
         id="glyph38"
         d="m 417.70128,797 0.99496,-267.69848 c 0.53793,-147.23368 0.16483,-270.1153 -0.84961,-273.08294 -1.42501,-4.18632 -20.40518,-5.13213 -84.34516,-4.24356 L 251,253.11682 V 525.05797 797 h 83.35018 z m 20.72045,-0.2832 36.43657,-3.45463 c 49.5994,-4.68365 87.20341,-16.6531 126.25445,-40.18266 40.41551,-24.35189 59.63723,-44.50263 83.61347,-87.74014 23.83028,-42.97529 32.3971,-81.92849 32.28068,-146.76992 -0.16931,-90.13897 -27.93913,-155.92456 -85.77929,-203.25398 -37.38134,-30.5885 -69.74625,-44.33181 -131.43453,-55.78147 -49.04212,-9.10236 -51.34146,-9.26748 -57.12766,-4.53634 -2.32256,1.89896 -4.24355,124.56092 -4.24355,272.58561 z" />
      <glyph
         glyph-name=""
         unicode="E"
         id="glyph39"
         d="M 678.68055,799 V 575.52278 L 489.89337,799 Z M 468.1056,799 V 529.33739 c 0,-148.31619 -1.89579,-271.21985 -4.22232,-273.12253 -5.79776,-4.74049 -8.10176,-4.5459 -57.24022,4.57484 -61.81029,11.47207 -94.26777,25.24245 -131.72292,55.89124 -57.95429,47.42267 -85.74863,113.33771 -85.9189,203.6543 -0.11999,64.96933 8.46692,103.97032 32.34414,147.02966 24.02365,43.32318 43.25411,63.54274 83.74908,87.94245 39.128,23.57592 76.83508,35.56912 126.53249,40.26185 z M 600.26844,645.63599 599.86006,534.6742 v -0.11999 L 600.26844,423.5636 489.98119,534.55421 h -0.09 l 0.03,0.03 -0.03,0.06 h 0.09 z M 678.68055,496.02562 V 253.31176 H 489.89337 Z" />
      <glyph
         glyph-name=""
         unicode="F"
         id="glyph40"
         d="M 282,799 V 526.52975 254.0589 l 82.66191,-1.14703 c 64.06431,-0.8903 83.08124,0.06 84.50916,4.25015 1.01342,2.97341 1.39176,126.0937 0.85126,273.61428 l -0.96686,268.21845 h -83.5417 z m 187.87326,-0.56751 188.7529,-223.47163 V 798.43249 Z M 580.24547,645.10185 469.96124,534.11394 h -0.0901 l 0.03,-0.03 -0.03,-0.06 h 0.0901 L 580.24547,423.065 579.83712,534.02394 v 0.12007 z" />
      <glyph
         glyph-name=""
         unicode="G"
         id="glyph41"
         d="m 501.83415,800 -0.26889,-0.0303 -36.43886,-3.45201 c -50.00445,-4.72187 -87.91544,-16.78905 -127.28513,-40.51069 -1.27801,-0.77044 -2.36207,-1.50613 -3.59945,-2.27189 -38.19244,-23.54972 -57.28269,-43.9609 -80.69645,-86.18453 -24.02468,-43.32551 -32.66128,-82.5973 -32.5442,-147.96806 0.17077,-90.87439 28.1382,-157.19763 86.45009,-204.91328 9.5699,-7.83081 18.83858,-14.5664 28.32494,-20.44711 27.87111,-17.27776 57.81261,-27.17775 104.21217,-35.78973 15.87797,-2.94731 26.53736,-4.88111 34.37346,-6.10761 h 21.12618 c 0.15109,0.0906 0.2976,0.2281 0.44564,0.3263 -48.83518,3.0819 -87.51875,43.53383 -87.51224,93.14794 -0.006,51.51586 41.67315,93.27135 93.14777,93.44265 0.16021,28.37555 0.26891,57.8238 0.26891,89.40013 v 171.42492 z m 42.16292,-135.95966 -18.08673,-0.82634 0.12083,-177.23776 -0.29762,-69.33672 c -19.31441,0.002 -45.39209,-3.23508 -62.13778,-16.05078 -17.33714,-13.26574 -25.72221,-34.32272 -25.72855,-54.31938 -0.004,-39.3218 31.87407,-71.19964 71.19601,-71.19572 14.38469,0.12083 40.56402,0.22207 47.56217,1.59359 41.76907,8.18736 67.95522,23.71212 93.26576,45.58547 39.16319,33.84474 57.95191,80.88557 58.06611,145.34225 0.0605,46.36706 -5.72799,74.21901 -21.86322,104.94983 -16.23419,30.91859 -29.22603,45.34375 -56.59093,62.75747 -26.44116,16.82561 -51.9227,25.3894 -85.50581,28.73809 z" />
      <glyph
         glyph-name=""
         unicode="H"
         id="glyph42"
         d="m 269.21948,800 -0.97016,-268.71679 c -0.546,-147.79427 -0.16553,-271.14354 0.85133,-274.12232 1.43044,-4.2024 20.48315,-5.15167 84.6663,-4.25971 l 82.81543,1.14464 v 141.89387 h 43.09687 c 0.0301,-80.19133 0.38054,-137.85708 1.05741,-139.83742 1.43042,-4.20224 20.48298,-5.15165 84.66613,-4.25971 l 82.81545,1.14615 v 272.97664 272.9765 h -83.66739 -83.6674 l -0.99873,-268.71679 c -0.0452,-14.03958 -0.0601,-26.29013 -0.0903,-39.80672 h -43.21444 v 36.60458 272.97664 h -83.69672 z" />
      <glyph
         glyph-name=""
         unicode="I"
         id="glyph43"
         d="m 393.25188,256.47477 c -1.01266,2.97582 -1.39709,126.20627 -0.85411,273.84677 l 0.97841,268.43711 h 83.21027 83.21028 V 526.06058 253.3625 l -82.35482,-1.14796 c -63.8285,-0.89102 -82.76825,0.0601 -84.19063,4.26037 z" />
      <glyph
         glyph-name=""
         unicode="J"
         id="glyph44"
         d="m 493.90457,252.61738 c 15.83235,0.28369 79.14642,4.15266 78.91945,48.48921 -0.39776,80.91305 1.96301,219.66743 1.96301,219.66743 0.56738,147.48549 -0.85105,277.83038 -0.85105,277.83038 0,0 -20.43997,0.89009 -84.48921,0 l -82.61326,-1.14376 V 525.05305 438.33548 c 0.1201,0.009 0.22665,0.0154 0.39627,0.0299 51.29576,0.007 92.88035,-41.57891 92.87406,-92.87406 0.007,-51.29574 -41.5783,-92.88094 -92.87406,-92.87406 h 83.11188 c 0,0 1.28786,-0.0451 3.54566,0 z m -85.16389,20.66796 a 70.733057,70.733057 0 0 1 70.74023,70.74022 70.733057,70.733057 0 0 1 -70.74023,70.74069 A 70.733057,70.733057 0 0 1 338,344.02556 70.733057,70.733057 0 0 1 408.74068,273.28534 Z" />
      <glyph
         glyph-name=""
         unicode="K"
         id="glyph45"
         d="m 317.2243,799.92492 -0.96525,-268.18363 c -0.56743,-147.50067 -0.16962,-270.6047 0.85116,-273.57772 1.42909,-4.1939 20.44261,-5.14142 84.4983,-4.25124 l 82.65116,1.14387 v 272.43385 272.43487 h -83.53052 z m 280.23318,-22.25358 a 70.740182,70.740182 0 0 1 -70.74721,-70.74722 70.740182,70.740182 0 0 1 70.74721,-70.7472 70.740182,70.740182 0 0 1 70.7184,70.7472 70.740182,70.740182 0 0 1 -70.7184,70.74722 z m -94.0561,-70.74722 V 483.10085 c 0,-123.09173 1.51481,-225.08859 3.3417,-226.66704 4.55598,-3.93406 6.36066,-3.7871 44.97539,3.78198 48.57243,9.52132 74.06398,20.94684 103.4971,46.38316 45.54327,39.35749 67.40883,94.06918 67.52231,169.02574 0.12009,53.91923 -6.62727,86.31965 -25.39053,122.05608 -10.59104,20.17135 -20.08969,34.22899 -31.92893,46.32462 a 93.307504,93.307504 0 0 0 -68.695,-30.40451 93.307504,93.307504 0 0 0 -93.32325,93.32324 z" />
      <glyph
         glyph-name=""
         unicode="L"
         id="glyph46"
         d="m 478.58337,800 1.03067,-269.20113 c 0.28479,-69.78605 0.28479,-132.91758 0.17029,-181.76258 h 144.29738 v -94.41311 l -156.54078,-2.29569 v 0.3526 c -11.76105,-1.17232 -34.07405,-1.31396 -73.5762,-0.76546 L 311,253.06133 V 526.5309 799.9994 h 83.81835 z" />
      <glyph
         glyph-name=""
         unicode="M"
         id="glyph47"
         d="m 172,799 1.02692,-66.73891 253.11429,-478.34221 H 599.46812 L 299.87727,799 Z M 345.47375,799 639.3465,253.91888 H 812.67386 L 513.08301,799 Z M 173.02661,655.31872 V 253.91888 h 213.20575 z" />
      <glyph
         glyph-name=""
         unicode="N"
         id="glyph48"
         d="M 269.11654,800 565.69405,255.08632 H 693.12027 L 694.0538,323.37215 441.83077,800 Z m 212.45509,0 212.48381,-399.98517 V 800 Z M 269,729.14279 l 3.50567,-473.4428 257.9497,-3.50625 z" />
      <glyph
         glyph-name=""
         unicode="O"
         id="glyph49"
         d="m 466.70272,798 -30.14861,-3.47673 C 395.47277,789.82199 364.31347,777.802 331.9685,754.17889 c -33.47486,-24.44832 -49.37825,-44.66994 -69.2367,-88.0797 -19.73777,-43.14578 -26.82747,-82.25572 -26.73083,-147.3546 0.11967,-90.49716 23.11125,-156.54104 71.01889,-204.05874 30.96156,-30.71012 58.40197,-42.04894 108.88005,-56.00294 17.39497,-4.80867 33.25604,-5.14164 50.21857,-5.14164 2.7079,0 0.58335,125.61749 0.58335,274.23031 z m 23.22509,-0.58484 V 527.21635 c 0,-148.61283 -1.88703,-267.70329 0.03,-269.61457 l 0.58335,-0.58482 c 5.42927,-5.41073 5.34671,-4.56443 50.21857,1.10983 51.95754,6.57053 77.91789,25.29296 108.8799,56.00293 47.90719,47.51785 70.90582,113.56146 71.01889,204.05874 0.0897,65.09888 -6.99291,104.20898 -26.73066,147.3546 -19.85847,43.40977 -35.76186,63.63141 -69.23673,88.07986 -32.34497,23.62297 -63.50427,35.6425 -104.5856,40.34425 z" />
      <glyph
         glyph-name=""
         unicode="P"
         id="glyph50"
         d="m 286.23896,252.60464 -0.99684,268.20655 c -0.54497,147.51387 -0.13506,270.65826 0.87975,273.63141 1.4277,4.19441 20.41481,5.14187 84.47612,4.25161 l 82.65824,-1.14247 V 525.09297 252.6054 H 369.74768 Z M 474.95435,411.70463 V 602.9713 c 0,105.19181 1.2836,192.35044 2.84433,193.69978 3.8937,3.36197 5.44093,3.24336 38.44096,-3.22519 41.50897,-8.13648 63.28124,-17.90574 88.43471,-39.64303 38.91986,-33.63433 57.59185,-80.38321 57.70534,-144.43927 0.0751,-46.07886 -5.6628,-73.75837 -21.69825,-104.29751 -16.13318,-30.72649 -29.07359,-45.03322 -56.26848,-62.33874 -26.27687,-16.72049 -51.60012,-25.23108 -84.97472,-28.55895 z" />
      <glyph
         glyph-name=""
         unicode="Q"
         id="glyph51"
         d="m 440.76065,798 -30.15619,-3.4776 c -41.09165,-4.70247 -72.25877,-16.72547 -104.61186,-40.35451 -33.48326,-24.45444 -49.39067,-44.68132 -69.25427,-88.10183 -19.74254,-43.15661 -26.83402,-82.27638 -26.73736,-147.3916 0.11968,-90.51986 23.11705,-156.58035 71.03673,-204.10997 30.96916,-30.71783 58.41661,-42.05951 108.90736,-56.01699 17.39934,-4.8099 33.26441,-5.14294 50.2312,-5.14294 2.7086,0 0.58497,125.64917 0.58497,274.29931 z m 23.23091,-0.58499 v -270.2668 c 0,-55.8201 -0.2663,-104.54214 -0.4967,-147.3916 l -0.40845,0.49822 V 157.53096 h 188.12597 l -93.39093,110.57303 c 26.13626,9.74904 44.88718,25.04182 65.92299,45.90648 47.91908,47.52962 70.92363,113.58997 71.03674,204.10983 0.0897,65.11522 -6.99484,104.23514 -26.73738,147.39175 -19.86345,43.42036 -35.77099,63.64723 -69.25425,88.10183 -32.35296,23.62889 -63.52006,35.65145 -104.61173,40.3545 z" />
      <glyph
         glyph-name=""
         unicode="R"
         id="glyph52"
         d="m 350.57224,798.99717 c -32.43159,-0.0902 -43.37928,-1.42918 -44.45041,-4.57423 -1.01482,-2.9732 -1.42466,-126.11323 -0.87972,-273.62194 l 0.99682,-268.19769 h 83.50571 83.50573 v 272.47844 272.44917 l -82.65542,1.14242 c -16.0148,0.2207 -29.21237,0.35129 -40.023,0.32277 z m 152.40977,-0.17569 c -2.58257,-0.13517 -3.7298,-0.90824 -5.18975,-2.16957 -1.56037,-1.3496 -2.84421,-88.5054 -2.84421,-193.69348 V 476.40985 l -0.0301,0.0299 V 252.98564 h 188.7675 L 544.32343,417.97406 c 21.89433,4.61853 40.74057,12.44171 60.07847,24.74666 27.19383,17.30495 40.13394,31.61072 56.26672,62.33618 16.03475,30.53809 21.77679,58.21711 21.69737,104.29411 -0.12011,64.05401 -18.78484,110.80131 -57.70338,144.43447 -25.15245,21.73656 -46.92414,31.5055 -88.43169,39.6417 -20.62416,4.04265 -28.9456,5.61262 -33.24977,5.39479 z" />
      <glyph
         glyph-name=""
         unicode="S"
         id="glyph53"
         d="m 268,802 1.91169,-68.69975 162.75015,-307.56078 H 269.61673 l -1.5297,-171.54401 381.4084,-0.61735 2.23482,83.46317 L 396.253,801.99985 Z m 381.37782,-0.52851 -218.3041,-0.64748 168.60267,-317.17768 50.37781,0.0904 z" />
      <glyph
         glyph-name=""
         unicode="T"
         id="glyph54"
         d="M 243.31426,799.82383 V 673.83025 H 386.05587 V 528.53237 255.50736 h 2.52695 v -1.82182 h 83.62339 83.6822 v 273.02499 148.9414 H 698.63002 V 800 Z" />
      <glyph
         glyph-name=""
         unicode="U"
         id="glyph55"
         d="M 320,798 V 398.4612 L 532.2019,798 Z M 571.8931,798 320,321.90963 320.93242,253.73411 H 448.1776 L 744.4022,798 Z" />
      <glyph
         glyph-name=""
         unicode="V"
         id="glyph56"
         d="M 320,798 V 398.4612 L 532.2019,798 Z M 571.8931,798 320,321.90963 320.93242,253.73411 H 448.1776 L 744.4022,798 Z" />
      <glyph
         glyph-name=""
         unicode="W"
         id="glyph57"
         d="M 192.89811,798.98649 V 399.35215 l 212.26814,399.63434 z m 252.0012,0 -252.0012,-476.23895 -1.89815,-68.19677 H 318.31427 L 617.4344,798.98649 Z m 212.26813,0 L 363.71128,254.55077 H 530.583 l 299.14943,544.43572 z" />
      <glyph
         glyph-name=""
         unicode="X"
         id="glyph58"
         d="M 451.26609,802 564.67176,598.50389 706.89488,802 Z M 237,798.82706 539.17317,255.11334 h 166.3828 L 409.05894,798.82706 Z M 389.43988,447.78104 258.07407,254.29827 495.88908,250.36882 Z" />
      <glyph
         glyph-name=""
         unicode="Y"
         id="glyph59"
         d="m 305.64472,803 -0.70549,-317.44208 50.3563,-0.0602 168.40132,316.85452 z M 559.68715,800.88447 378.47577,465.22726 304.55777,464.55187 303,254.19634 433.0028,253.28628 733.31653,800.88507 Z" />
      <glyph
         glyph-name=""
         unicode="Z"
         id="glyph60"
         d="M 685.18061,800 683.27603,731.55063 521.11942,425.11147 h 162.45052 l 1.5241,-170.91825 -380.0173,-0.61511 -2.22668,83.15863 254.54542,463.26296 z M 305.1939,799.47191 522.70174,798.8268 354.71409,482.80595 l -50.1941,0.0901 z" />
      <glyph
         glyph-name=""
         unicode="["
         id="glyph61" />
      <glyph
         glyph-name=""
         unicode="\"
         id="glyph62" />
      <glyph
         glyph-name=""
         unicode="]"
         id="glyph63" />
      <glyph
         glyph-name=""
         unicode="^"
         id="glyph64" />
      <glyph
         glyph-name=""
         unicode="_"
         id="glyph65" />
      <glyph
         glyph-name=""
         unicode="`"
         id="glyph66" />
      <glyph
         glyph-name=""
         unicode="a"
         id="glyph67"
         d="m 384.29458,799.97986 c -15.88118,-0.28458 -79.41824,-4.16536 -79.19015,-48.63756 0.39898,-81.15972 -1.97005,-220.33799 -1.97005,-220.33799 -0.56912,-147.93712 0.85366,-278.68006 0.85366,-278.68006 0,0 20.50271,-0.89282 84.7477,0 l 82.86588,1.14724 v 273.23995 86.98275 c -0.12044,-0.0102 -0.21077,-0.0151 -0.38091,-0.0302 -51.4525,-0.007 -93.16421,41.70551 -93.15789,93.15803 -0.007,51.45237 41.70539,93.16466 93.15789,93.15789 h -83.36573 c 0,0 -1.29028,0.0452 -3.55828,0 z m 87.306,-20.99581 a 70.949225,70.949225 0 0 1 -70.92692,-70.92737 70.949225,70.949225 0 0 1 70.92692,-70.95627 70.949225,70.949225 0 0 1 70.95642,70.95627 70.949225,70.949225 0 0 1 -70.95642,70.92737 z M 489.71469,614.36958 V 435.52299 c 0,-98.37487 1.28576,-179.90756 2.85261,-181.16968 3.90474,-3.14395 5.45654,-3.02049 38.55103,3.02893 41.62844,7.60936 63.4627,16.75216 88.68827,37.08084 39.03145,31.45462 57.75698,75.15638 57.87081,135.06139 0.0752,43.09246 -5.67965,68.97854 -21.76032,97.53912 -16.17958,28.73539 -29.15696,42.1283 -56.42997,58.3118 -26.35236,15.63772 -51.7184,23.5878 -85.18884,26.70046 z" />
      <glyph
         glyph-name=""
         unicode="b"
         id="glyph68"
         d="m 522.26269,799 -36.49944,-3.46338 c -49.72501,-4.6955 -87.45372,-16.69529 -126.60367,-40.28444 -40.51774,-24.41357 -59.75901,-44.61535 -83.79596,-87.96238 -23.89066,-43.08413 -32.47918,-82.13601 -32.36245,-147.14167 0.16975,-90.36714 27.9806,-156.31937 85.96727,-203.76882 37.47602,-30.66583 69.9522,-44.44395 131.79688,-55.92261 49.1662,-9.12542 51.47136,-9.32041 57.27235,-4.57743 2.32831,1.90377 4.22472,124.90557 4.22472,273.30489 z m 19.54065,0 V 607.61252 c 0,-105.2578 1.2829,-192.47192 2.84612,-193.82198 3.89618,-3.36408 5.44437,-3.2454 38.46524,3.22709 41.5355,8.14176 63.35037,17.91734 88.51986,39.66853 38.94445,33.6557 57.62824,80.43382 57.74181,144.53049 0.0751,46.10812 -5.696,73.80451 -21.74127,104.36354 -16.14351,30.7459 -29.06251,45.09066 -56.27473,62.40711 -26.29361,16.73104 -51.6324,25.21531 -85.02839,28.548 z" />
      <glyph
         glyph-name=""
         unicode="c"
         id="glyph69"
         d="m 503.79266,798 -0.99325,-267.23864 c -0.53702,-146.98076 -0.16454,-269.65131 0.84815,-272.61385 1.42256,-4.17913 20.37012,-5.12331 84.20026,-4.23626 l 82.35976,1.13983 V 526.52509 798 h -83.20701 z m -20.68486,-0.28272 -36.37399,-3.44869 c -49.5142,-4.6756 -87.05361,-16.6245 -126.03757,-40.11364 -40.34609,-24.31006 -59.53478,-44.42619 -83.46983,-87.58942 -23.78936,-42.90146 -32.34147,-81.78775 -32.22524,-146.5178 0.16903,-89.98414 27.89114,-155.65671 85.63194,-202.90484 37.31713,-30.53596 69.62644,-44.25566 131.20875,-55.68565 48.95789,-9.08673 51.25328,-9.25157 57.02954,-4.52855 2.31857,1.8957 4.23626,124.34695 4.23626,272.11737 z" />
      <glyph
         glyph-name=""
         unicode="d"
         id="glyph70"
         d="M 452.72664,799 451.7302,530.89983 c -0.53875,-147.4546 -0.13507,-270.52061 0.8794,-273.4927 1.42714,-4.19261 20.40652,-5.13983 84.44259,-4.24993 l 82.62528,1.14352 V 526.64991 799 h -83.47512 z m 301.01501,-0.03 c -12.41256,0.0601 -29.3075,-0.0149 -47.68752,-0.34065 l -66.85645,-1.23056 15.06548,-28.5186 c 8.28614,-15.68899 38.5856,-74.89182 67.3254,-131.57291 l 52.25995,-103.08373 1.17201,131.13336 c 0.6408,72.13239 0.4082,131.89677 -0.49972,132.80422 -0.4532,0.45321 -8.36824,0.73684 -20.78095,0.82238 z M 431.9751,798.74341 395.51327,795.28359 C 345.83944,790.59291 308.14976,778.60548 269.03996,755.04048 228.56395,730.65221 209.3425,710.47107 185.3303,667.16869 161.46425,624.12892 152.88458,585.11742 153.00117,520.17854 c 0.16958,-90.27422 27.95181,-156.15852 85.87874,-203.55896 37.43744,-30.63441 69.8509,-44.39834 131.63175,-55.86517 49.11571,-9.11603 51.44777,-9.2814 57.24279,-4.54316 2.3259,1.90181 4.22036,124.74783 4.22036,272.99463 z" />
      <glyph
         glyph-name=""
         unicode="e"
         id="glyph71"
         d="M 273,799 V 575.45105 L 461.84777,799 Z m 210.64252,0 V 529.25084 c 0,-148.3638 1.89641,-271.3069 4.2237,-273.21021 5.7996,-4.74199 8.10437,-4.54735 57.25859,4.57633 61.83012,11.47575 94.29803,25.25055 131.7652,55.90916 57.97288,47.4379 85.77614,113.37412 85.94646,203.71968 0.12015,64.9902 -8.46962,104.00368 -32.35452,147.07686 -24.03134,43.33706 -43.26797,63.56312 -83.77597,87.97067 -39.14054,23.58349 -76.85972,35.58053 -126.57309,40.27476 z M 351.43728,645.58678 351.84579,534.58937 v -0.12015 l -0.40851,-111.02625 110.32263,111.02625 h 0.0901 l -0.0301,0.0301 0.0301,0.0601 h -0.0901 z M 273,495.92837 V 253.13662 h 188.84777 z" />
      <glyph
         glyph-name=""
         unicode="f"
         id="glyph72"
         d="m 459.01642,798.97993 c -15.83234,-0.28368 -79.14641,-4.15266 -78.91945,-48.48919 0.39776,-80.91308 -1.963,-219.66744 -1.963,-219.66744 -0.56739,-147.48551 0.85105,-277.83041 0.85105,-277.83041 0,0 20.43996,-0.89009 84.48921,0 l 82.61325,1.14376 v 272.40761 86.71758 c -0.12001,-0.009 -0.22664,-0.0143 -0.39776,-0.03 -51.29575,-0.007 -92.88036,41.57891 -92.87406,92.87406 -0.007,51.29575 41.57831,92.88096 92.87406,92.87406 h -83.11189 c 0,0 -1.28785,0.0451 -3.54565,0 z m 85.16391,-20.66794 a 70.73306,70.73306 0 0 1 -70.74024,-70.74024 70.73306,70.73306 0 0 1 70.74024,-70.74069 70.73306,70.73306 0 0 1 70.74069,70.74069 70.73306,70.73306 0 0 1 -70.74069,70.74024 z" />
      <glyph
         glyph-name=""
         unicode="g"
         id="glyph73"
         d="m 484.16155,802 -0.96956,-269.38381 c -0.56996,-148.16059 -0.17038,-271.81584 0.85497,-274.80216 1.43548,-4.21266 20.53468,-5.16443 84.87659,-4.27027 l 83.02088,1.14899 v 238.01903 h 64.76125 v 96.7738 H 651.94443 V 802 H 568.0692 Z m -20.82134,-0.28498 -36.66627,-3.44789 C 376.76243,793.554 338.92109,781.50919 299.62465,757.83151 258.95484,733.3263 239.61226,713.01959 215.48494,669.50928 191.50522,626.26404 182.88371,587.09471 183.00118,521.84492 c 0.17038,-90.7066 28.08532,-156.90621 86.28992,-204.5336 37.61637,-30.78107 70.21518,-44.6109 132.29123,-56.13264 49.35118,-9.15967 51.66485,-9.3554 57.48761,-4.59446 2.33659,1.91092 4.26862,125.34495 4.26862,274.3017 z" />
      <glyph
         glyph-name=""
         unicode="h"
         id="glyph74"
         d="m 306.22488,799 -0.96525,-268.18363 c -0.56743,-147.50067 -0.16962,-270.6047 0.85116,-273.57772 1.42909,-4.1939 20.44261,-5.14142 84.4983,-4.25124 l 82.65116,1.14387 V 526.56513 799 h -83.53052 z m 280.23318,-22.25358 a 70.740182,70.740182 0 0 1 -70.74721,-70.74722 70.740182,70.740182 0 0 1 70.74721,-70.7472 70.740182,70.740182 0 0 1 70.7184,70.7472 70.740182,70.740182 0 0 1 -70.7184,70.74722 z M 492.40196,705.9992 V 482.17593 c 0,-123.09173 1.51481,-225.08859 3.3417,-226.66704 4.55598,-3.93406 6.36066,-3.7871 44.97539,3.78198 48.57243,9.52132 74.06398,20.94684 103.4971,46.38316 45.54327,39.35749 67.40883,94.06918 67.52231,169.02574 0.12009,53.91923 -6.62727,86.31965 -25.39053,122.05608 -10.59104,20.17135 -20.08969,34.22899 -31.92893,46.32462 a 93.307504,93.307504 0 0 0 -68.695,-30.40451 93.307504,93.307504 0 0 0 -93.32325,93.32324 z" />
      <glyph
         glyph-name=""
         unicode="i"
         id="glyph75"
         d="m 383.10063,258.15097 c -1.01266,2.96246 -1.39709,125.6396 -0.85411,272.6172 L 383.22493,798 h 83.21027 83.21028 V 526.52634 255.05267 l -82.35482,-1.1428 c -63.8285,-0.88702 -82.76825,0.0598 -84.19063,4.24124 z" />
      <glyph
         glyph-name=""
         unicode="j"
         id="glyph76"
         d="m 421.23802,798.99761 c -3.49988,0.0128 -4.32802,-0.03 -7.35756,-0.03 -12.43087,0.007 -18.26436,-0.0146 -23.91909,-0.12011 -8.32422,-0.12012 -12.76512,-0.28366 -12.8388,-0.28366 h -0.12012 -0.03 c 0,0 -0.77742,-73.28602 -0.9365,-172.1527 v -0.03 -0.12012 c -0.0601,-32.92514 -0.0601,-68.70001 0.12011,-105.52546 0,0 0.5793,-34.47067 1.11209,-78.38201 0.007,-0.60783 0.0147,-0.47125 0.03,-1.08508 0.28365,-22.41126 0.51029,-47.32658 0.70389,-71.72805 0.16955,-24.38435 0.22663,-48.21927 0.12011,-68.44487 -0.007,-1.58321 0.12012,-3.12034 0.22664,-4.60209 0.5898,-5.92668 2.39933,-11.04037 5.09944,-15.47707 0.67535,-1.10908 1.41826,-2.17076 2.20077,-3.19521 2.34847,-3.08115 5.13921,-5.773 8.26644,-8.14892 3.11973,-2.37099 6.54577,-4.42558 10.17158,-6.18497 0.007,-0.004 0.0146,0.004 0.03,0 4.82719,-2.34036 10.00092,-4.18336 15.15469,-5.62804 5.16188,-1.44677 10.31173,-2.49072 15.15484,-3.25373 9.68605,-1.52573 18.07601,-1.91429 22.59974,-1.99322 2.26321,-0.045 3.57928,0 3.57928,0 h 83.10086 c -12.82229,-0.002 -25.03151,2.60029 -36.14243,7.29885 -0.007,0.004 -0.0146,-0.004 -0.03,0 -5.54758,2.34726 -10.83704,5.22641 -15.77018,8.55927 -4.94065,3.33763 -9.54663,7.14263 -13.74753,11.34398 -12.61068,12.61054 -21.5912,28.81114 -25.29684,46.95888 -0.61834,3.02278 -1.08959,6.08218 -1.40627,9.20415 -0.34067,3.12199 -0.45323,6.29169 -0.45323,9.49727 -6e-4,6.42104 0.63483,12.67669 1.8775,18.7308 0.61833,3.02278 1.38374,5.97365 2.28588,8.88162 2.71706,8.73155 6.68325,16.91365 11.69533,24.32959 1.66199,2.464 3.4487,4.83499 5.33762,7.12296 0.004,0.005 -0.005,0.03 0,0.03 1.88892,2.28769 3.88559,4.46986 5.97981,6.56604 2.09874,2.10052 4.29966,4.11641 6.59515,6.00907 16.05277,13.24748 36.65525,21.19589 59.09395,21.19304 0.16956,-0.009 0.28365,-0.0146 0.39773,-0.03 v 53.05605 l 68.44516,-0.99803 v 96.35035 h -68.44522 v 210.67015 l -82.60289,1.14512 c -15.99831,0.22661 -29.26994,0.34067 -40.18739,0.39771 z M 542.18201,414.79685 a 70.72418,70.72418 0 0 1 -70.73136,-70.73136 70.72418,70.72418 0 0 1 70.73136,-70.73135 70.72418,70.72418 0 0 1 70.73121,70.73135 70.72418,70.72418 0 0 1 -70.73121,70.73136 z" />
      <glyph
         glyph-name=""
         unicode="k"
         id="glyph77"
         d="m 393.37444,798 c -15.72332,-0.0596 -78.59922,-3.07603 -78.37384,-47.10561 0.28172,-59.56598 1.51551,-298.15291 1.51551,-298.15291 l 163.61885,-0.84518 c 0,0 -0.28173,43.33762 -0.28173,162.68691 -0.11926,-0.01 -0.22508,-0.0149 -0.395,-0.0298 -50.94053,-0.007 -92.23765,41.29086 -92.23138,92.23197 -0.007,50.94112 43.41602,90.08385 94.35714,90.07759 l -84.66246,1.07621 c 0,0 -1.30727,0.0596 -3.55498,0.0596 z m 90.31087,-20.72913 c -38.78661,-0.0124 -70.22613,-31.46037 -70.22225,-70.25102 0.007,-19.73087 8.28008,-40.53764 25.38715,-53.62736 16.52351,-12.64283 42.25484,-15.81084 61.31299,-15.80845 l 0.28173,-68.44603 -0.0596,-132.08871 -0.16845,-24.42645 c -0.57984,-84.30755 -0.16843,-154.67008 0.90183,-156.36923 1.52685,-2.39662 21.86274,-2.95277 90.39763,-2.44567 l 73.36656,0.6693 V 410.17689 565.9053 h -0.50681 c 0.33836,6.73967 0.50681,13.73246 0.50681,21.39901 -0.11926,63.60079 -3.59999,110.01802 -42.24411,143.41367 -24.9747,21.58266 -50.78386,36.87222 -91.99869,44.95122 -6.90156,1.35199 -32.73263,1.48168 -46.9315,1.59989 z" />
      <glyph
         glyph-name=""
         unicode="l"
         id="glyph78"
         d="m 466.9677,799 -1.02691,-268.21934 c -0.28375,-69.53155 -0.28375,-132.43283 -0.16966,-181.09972 H 322 v -94.06877 l 155.96987,-2.2873 v 0.35132 c 11.71816,-1.16806 33.94979,-1.30918 73.30787,-0.7627 l 82.66216,1.14254 V 526.52824 798.9994 h -83.51266 z" />
      <glyph
         glyph-name=""
         unicode="m"
         id="glyph79"
         d="m 178,799 1.02691,-66.7389 253.1143,-478.34221 H 605.46812 L 305.87727,799 Z M 351.47375,799 645.3465,253.91889 H 818.67386 L 519.083,799 Z M 179.0266,655.31873 V 253.91889 h 213.20575 z" />
      <glyph
         glyph-name=""
         unicode="n"
         id="glyph80"
         d="m 288.23776,799 -0.99589,-267.94828 c -0.54442,-147.3716 -0.13493,-270.39734 0.87891,-273.36761 1.42635,-4.19039 20.39516,-5.13707 84.3949,-4.24752 l 82.57845,1.14137 v 272.19669 272.2252 H 371.66617 Z M 476.77118,640.05315 V 448.97106 c 0,-105.0906 1.28237,-192.16526 2.84174,-193.5133 3.88981,-3.35873 5.43554,-3.24023 38.40377,3.22209 41.46898,8.12863 63.22043,17.88848 88.34951,39.60483 38.88237,33.60192 57.53637,80.30576 57.64976,144.30011 0.075,46.03447 -5.65737,73.68715 -21.67721,104.19731 -16.11779,30.6969 -29.04574,44.98954 -56.21443,62.27824 -26.25155,16.70481 -51.55039,25.20721 -84.89284,28.53188 z" />
      <glyph
         glyph-name=""
         unicode="o"
         id="glyph81"
         d="m 450.61595,798 -30.13727,-3.47542 C 379.41279,789.82506 348.26522,777.8096 315.93242,754.19539 282.47014,729.75625 266.57272,709.54224 246.72173,666.14879 226.9914,623.01924 219.90436,583.924 220.00097,518.84961 c 0.11964,-90.4631 23.10256,-156.48217 70.99218,-203.98198 30.94992,-30.69857 58.38,-42.03312 108.8391,-55.98187 17.38842,-4.80688 33.24353,-5.13971 50.19968,-5.13971 2.70689,0 0.58312,125.57024 0.58312,274.12717 z m 23.21637,-0.58462 V 527.31819 c 0,-148.55691 -1.88634,-267.6026 0.0299,-269.51315 l 0.58311,-0.58312 c 5.42723,-5.40869 5.34471,-4.56271 50.1997,1.10942 51.93798,6.56806 77.88858,25.28346 108.83894,55.98187 47.88917,47.49997 70.87915,113.51873 70.99219,203.982 0.0897,65.07439 -6.9903,104.16977 -26.72061,147.29916 -19.85101,43.39345 -35.74841,63.60746 -69.21069,88.04674 -32.3328,23.61407 -63.48039,35.6291 -104.54626,40.32906 z" />
      <glyph
         glyph-name=""
         unicode="p"
         id="glyph82"
         d="m 500.42053,799.97299 c -6.44088,0.30168 -18.93364,-1.9036 -49.7891,-7.63042 -62.09857,-11.52586 -94.67964,-25.36064 -132.30935,-56.1526 -58.22545,-47.64458 -86.14977,-113.86805 -86.32083,-204.60684 -0.12065,-65.27287 8.50665,-104.48609 32.49555,-147.74697 24.13597,-43.52559 43.45621,-63.81031 84.14059,-88.32413 39.31111,-23.68602 77.19452,-35.73636 127.12435,-40.44998 l 36.64955,-3.47641 v 270.92339 c 0,149.00963 -1.90543,272.48834 -4.24284,274.39994 -2.18402,1.7861 -3.88354,2.8818 -7.74822,3.06372 z m 39.65458,-159.41356 c -2.5952,-0.13584 -3.71822,-0.9141 -5.18514,-2.1801 -1.56784,-1.35604 -2.85797,-88.9281 -2.85797,-194.61941 V 251.58579 l 24.62937,2.44512 c 33.53363,3.34368 58.94707,11.89482 85.34867,28.69497 27.32444,17.38753 40.32582,31.79143 56.53558,62.66363 16.11127,30.68471 21.90926,58.49546 21.83067,104.7929 -0.12065,64.36028 -18.87465,111.33107 -57.97928,145.1249 -25.27329,21.84064 -47.17728,31.65611 -88.8839,39.83137 -20.72291,4.06197 -29.1125,5.63599 -33.43829,5.42046 z" />
      <glyph
         glyph-name=""
         unicode="q"
         id="glyph83"
         d="m 471.8153,798.9816 c 51.26622,0.007 92.82761,-41.55464 92.82086,-92.82085 0.007,-51.26622 -41.55464,-92.82747 -92.82086,-92.82086 -0.16948,0.009 -0.29553,0.0154 -0.40805,0.0301 0,-120.11178 0.70358,-360.32542 0.70358,-360.32542 l 166.30408,0.26702 c 0,0 -1.39662,437.21726 -1.1131,497.21275 v 0.03 c 0.22652,50.60916 -82.41953,48.432 -82.41953,48.432 z m -4.30675,-21.91607 c -14.28457,-0.12002 -40.28088,-0.22051 -47.23085,-1.58188 -41.47739,-8.13043 -67.48103,-23.54688 -92.61579,-45.26778 -38.88982,-33.60859 -57.54804,-80.32205 -57.66145,-144.32937 -0.0599,-46.04364 5.68866,-73.70208 21.711,-104.21843 16.12151,-30.70297 29.02222,-45.02806 56.19642,-62.31996 26.25672,-16.70836 51.56085,-25.21248 84.91004,-28.53783 l 17.96054,0.85057 -0.12003,175.97292 0.29553,68.88306 c 19.17924,-0.002 45.07576,3.18642 61.70477,15.90967 17.2163,13.17299 25.54294,34.08338 25.54911,53.94036 0.003,39.04807 -31.65181,70.70377 -70.69974,70.69974 z" />
      <glyph
         glyph-name=""
         unicode="r"
         id="glyph84"
         d="M 403.75829,797.98316 C 387.98004,797.71242 324.88345,793.87291 325.1099,749.6897 325.39261,689.91522 324,253.90082 324,253.90082 l 165.82783,-0.29469 c 0,0 0.70156,239.52589 0.70156,359.2937 -0.11971,-0.009 -0.20932,-0.0157 -0.37844,-0.0299 -51.11956,-0.007 -92.5612,41.43564 -92.55506,92.5552 -0.007,51.11942 41.4355,92.56149 92.55506,92.55491 h -82.82627 c 0,0 -1.31035,0.0449 -3.56459,0 z m 90.65609,-21.82414 c -38.93595,0.004 -70.50115,-31.56102 -70.49726,-70.49726 0.007,-19.80013 8.30909,-40.67993 25.47609,-53.8152 16.58124,-12.68697 42.40316,-15.86591 61.52806,-15.86398 l 0.29468,-68.68594 -0.1197,-175.46899 17.90923,-0.81821 c 33.25372,3.31581 58.48523,11.79559 84.66675,28.45595 27.09654,17.24253 39.96091,31.52661 56.03564,62.14165 15.97691,30.42895 21.70538,58.00818 21.64883,103.91998 -0.11971,63.82402 -18.71742,110.40371 -57.49647,143.91604 -25.06218,21.65857 -50.99121,37.00184 -92.35042,45.10897 -6.92963,1.35673 -32.85208,1.48836 -47.09559,1.6067 z" />
      <glyph
         glyph-name=""
         unicode="s"
         id="glyph85"
         d="m 438.4185,798.98096 c -15.91152,-0.27303 -79.53981,-4.14474 -79.31127,-48.70043 0.39974,-81.31417 -1.97261,-220.78657 -1.97261,-220.78657 -0.57018,-148.21791 0.85531,-279.18014 0.85531,-279.18014 0,0 20.54154,-0.92467 84.90866,-0.0302 l 83.02324,1.14945 v 273.75896 87.14808 c -0.12059,-0.0108 -0.22777,-0.0152 -0.39973,-0.0302 -51.55032,-0.007 -93.34117,41.78481 -93.33499,93.33513 -0.007,51.55017 41.78467,93.34147 93.33499,93.33483 h -83.52435 c 0,0 -1.29426,0.0453 -3.56325,0 z m 83.55393,-16.46919 a 71.084097,71.084097 0 0 1 -71.09176,-71.09133 71.084097,71.084097 0 0 1 71.09176,-71.09129 71.084097,71.084097 0 0 1 71.09115,71.09129 71.084097,71.084097 0 0 1 -71.09115,71.09133 z m 23.30425,-171.76231 v -113.3101 l 177.97861,1.1781 c -3.0445,8.31636 -6.79705,16.37673 -11.46057,24.65943 -16.21033,28.78988 -29.21252,42.20825 -56.53722,58.4228 -26.40275,15.667 -51.81656,23.6334 -85.35095,26.75136 z" />
      <glyph
         glyph-name=""
         unicode="t"
         id="glyph86"
         d="m 451.06704,798.98598 c 51.16607,0.007 92.64614,-41.47333 92.63926,-92.63924 0.007,-51.16593 -41.47319,-92.64571 -92.63926,-92.63926 -0.16919,0.0104 -0.28298,0.0156 -0.39676,0.03 v -86.4985 -271.7183 l 82.40441,-1.14088 c 63.88746,-0.88783 84.27634,0 84.27634,0 0,0 1.41484,130.01522 0.84891,277.12831 0,0 -2.38234,138.40341 -1.98619,219.11163 0.28298,50.54114 -82.25782,48.36661 -82.25782,48.36661 z m 1.4942,-20.61569 A 70.554235,70.554235 0 0 1 382,707.80889 a 70.554235,70.554235 0 0 1 70.56124,-70.56138 70.554235,70.554235 0 0 1 70.56185,70.56138 70.554235,70.554235 0 0 1 -70.56185,70.5614 z" />
      <glyph
         glyph-name=""
         unicode="u"
         id="glyph87"
         d="M 441.56226,799 V 529.29719 c 0,-148.33823 1.89563,-271.26057 4.22252,-273.16356 5.79846,-4.74117 8.10268,-4.54642 57.24908,4.57555 61.81847,11.47394 94.28202,25.24623 131.74233,55.89974 57.96309,47.42977 85.7616,113.32556 85.93188,203.65535 0.12013,64.97876 -8.46816,104.0153 -32.34897,147.0814 -24.02723,43.32949 -43.29,63.55208 -83.79121,87.95545 -39.13383,23.57929 -76.81712,35.57534 -126.52213,40.26771 z M 415.46012,640.86197 c -4.30751,0.21623 -12.62883,-1.35295 -33.25821,-5.39617 -41.51808,-8.13827 -63.32458,-17.90968 -88.48341,-39.6519 -38.92857,-33.64156 -57.60452,-80.40072 -57.71804,-144.47101 -0.06,-46.08882 5.69365,-73.77426 21.73216,-104.32071 16.13733,-30.7331 29.04996,-45.07211 56.25142,-62.38113 26.28264,-16.7246 51.61175,-25.23722 84.99368,-28.56583 l 24.51825,-2.43411 v 191.30825 c 0,105.21507 -1.28237,192.39299 -2.84345,193.74264 -1.45806,1.26135 -2.60498,2.04188 -5.19285,2.17012 z" />
      <glyph
         glyph-name=""
         unicode="v"
         id="glyph88"
         d="M 293,799 V 397.57836 L 506.20194,799 Z M 546.0802,799 293,320.66604 293.9368,252.16926 H 421.78161 L 719.40221,799 Z" />
      <glyph
         glyph-name=""
         unicode="w"
         id="glyph89"
         d="M 206.89815,798 V 398.36566 L 419.16629,798 Z m 252.0012,0 L 206.89815,321.76105 205,253.56428 H 332.31431 L 631.43444,798 Z M 671.16748,798 377.71132,253.56428 H 544.58304 L 843.73247,798 Z" />
      <glyph
         glyph-name=""
         unicode="x"
         id="glyph90"
         d="M 453.18746,800 566.02224,597.5283 707.52927,800 Z M 240,796.84302 540.652,255.86637 H 706.19708 L 411.19278,796.84302 Z M 391.6725,447.56417 260.96784,255.0554 497.58583,251.14573 Z" />
      <glyph
         glyph-name=""
         unicode="y"
         id="glyph91"
         d="m 276.63027,799 -0.70158,-315.6934 50.07891,-0.0599 167.47366,315.10907 z M 529.27313,796.89613 349.06015,463.08792 275.54917,462.41628 274,253.22011 403.28664,252.31507 701.9462,796.89732 Z" />
      <glyph
         glyph-name=""
         unicode="z"
         id="glyph92"
         d="m 804.24367,799 -169.1602,-1.13835 -187.15809,-337.26942 -73.53641,-0.64323 -0.3964,-205.73904 129.30993,-0.905 127.73272,232.29622 119.9312,-0.37845 0.99475,155.72126 -35.99395,-0.84815 z M 423.1794,640.91229 c -65.26118,0.16445 -133.6074,-6.14977 -181.89852,-48.90756 -33.91558,-33.5129 -50.1823,-80.09304 -50.28058,-143.91789 -0.0448,-45.9124 4.95818,-73.49198 18.93173,-103.92134 14.06002,-30.61543 25.29603,-44.89953 48.99551,-62.14245 22.89846,-16.66042 41.38471,-23.50427 70.46869,-26.82013 l 26.38215,0.0299 -1.57736,230.04675 70.5568,0.81822 83.32394,153.38399 c -26.22164,-0.0597 -55.23725,1.35676 -84.90177,1.43154 z" />
      <glyph
         glyph-name=""
         unicode="{"
         id="glyph93" />
      <glyph
         glyph-name=""
         unicode="|"
         id="glyph94" />
      <glyph
         glyph-name=""
         unicode="}"
         id="glyph95" />
      <glyph
         glyph-name=""
         unicode="~"
         id="glyph96" />
      <glyph
         glyph-name=""
         unicode=" "
         id="glyph97" />
      <glyph
         glyph-name=""
         unicode="¡"
         id="glyph98" />
      <glyph
         glyph-name=""
         unicode="¢"
         id="glyph99" />
      <glyph
         glyph-name=""
         unicode="£"
         id="glyph100" />
      <glyph
         glyph-name=""
         unicode="¤"
         id="glyph101" />
      <glyph
         glyph-name=""
         unicode="¥"
         id="glyph102" />
      <glyph
         glyph-name=""
         unicode="¦"
         id="glyph103" />
      <glyph
         glyph-name=""
         unicode="§"
         id="glyph104" />
      <glyph
         glyph-name=""
         unicode="¨"
         id="glyph105" />
      <glyph
         glyph-name=""
         unicode="©"
         id="glyph106" />
      <glyph
         glyph-name=""
         unicode="ª"
         id="glyph107" />
      <glyph
         glyph-name=""
         unicode="«"
         id="glyph108" />
      <glyph
         glyph-name=""
         unicode="¬"
         id="glyph109" />
      <glyph
         glyph-name=""
         unicode="­"
         id="glyph110" />
      <glyph
         glyph-name=""
         unicode="®"
         id="glyph111" />
      <glyph
         glyph-name=""
         unicode="¯"
         id="glyph112" />
      <glyph
         glyph-name=""
         unicode="°"
         id="glyph113" />
      <glyph
         glyph-name=""
         unicode="±"
         id="glyph114" />
      <glyph
         glyph-name=""
         unicode="²"
         id="glyph115" />
      <glyph
         glyph-name=""
         unicode="³"
         id="glyph116" />
      <glyph
         glyph-name=""
         unicode="´"
         id="glyph117" />
      <glyph
         glyph-name=""
         unicode="µ"
         id="glyph118" />
      <glyph
         glyph-name=""
         unicode="¶"
         id="glyph119" />
      <glyph
         glyph-name=""
         unicode="·"
         id="glyph120" />
      <glyph
         glyph-name=""
         unicode="¸"
         id="glyph121" />
      <glyph
         glyph-name=""
         unicode="¹"
         id="glyph122" />
      <glyph
         glyph-name=""
         unicode="º"
         id="glyph123" />
      <glyph
         glyph-name=""
         unicode="»"
         id="glyph124" />
      <glyph
         glyph-name=""
         unicode="¼"
         id="glyph125" />
      <glyph
         glyph-name=""
         unicode="½"
         id="glyph126" />
      <glyph
         glyph-name=""
         unicode="¾"
         id="glyph127" />
      <glyph
         glyph-name=""
         unicode="¿"
         id="glyph128" />
      <glyph
         glyph-name=""
         unicode="À"
         id="glyph129" />
      <glyph
         glyph-name=""
         unicode="Á"
         id="glyph130"
         d="m 473.93693,946 -88.8476,-0.22798 -37.03694,-109.93166 50.10023,0.62204 z M 271,802.33436 272.0327,735.21927 398.44794,496.30724 357.51862,496.89455 272.0327,657.84047 V 254.17816 h 214.4077 l -77.37668,145.67123 40.4575,-0.0302 77.0524,-145.64165 H 700.87754 L 399.59795,802.33165 Z" />
      <glyph
         glyph-name=""
         unicode="Â"
         id="glyph131" />
      <glyph
         glyph-name=""
         unicode="Ã"
         id="glyph132" />
      <glyph
         glyph-name=""
         unicode="Ä"
         id="glyph133" />
      <glyph
         glyph-name=""
         unicode="Å"
         id="glyph134" />
      <glyph
         glyph-name=""
         unicode="Æ"
         id="glyph135" />
      <glyph
         glyph-name=""
         unicode="Ç"
         id="glyph136" />
      <glyph
         glyph-name=""
         unicode="È"
         id="glyph137" />
      <glyph
         glyph-name=""
         unicode="É"
         id="glyph138"
         d="m 573.82934,944 -88.58495,-0.2273 -36.92744,-109.60669 49.95212,0.6202 z M 468.83875,799.31803 432.264,795.87595 C 382.43622,791.17076 344.63011,779.14681 305.39922,755.50898 264.79788,731.04503 245.5169,710.77251 221.43019,667.33544 197.4904,624.163 188.8873,585.059 189.00111,519.91919 c 0.1701,-90.55391 28.03805,-156.64223 86.14452,-204.1893 37.55366,-30.72851 70.09639,-44.53566 132.06885,-56.038 49.2675,-9.1429 51.57773,-9.33679 57.39054,-4.58568 2.33265,1.90605 4.23373,125.13366 4.23373,273.83982 z m 21.84484,0 189.28296,-224.06412 V 799.31803 Z M 601.34866,645.55187 490.7718,534.26901 h -0.0602 l 0.0301,-0.0602 -0.0301,-0.0301 h 0.0602 l 110.57686,-111.28225 -0.38235,111.28225 v 0.12037 z M 679.96655,495.54857 490.68359,252.19732 h 189.28296 z" />
      <glyph
         glyph-name=""
         unicode="Ê"
         id="glyph139" />
      <glyph
         glyph-name=""
         unicode="Ë"
         id="glyph140" />
      <glyph
         glyph-name=""
         unicode="Ì"
         id="glyph141" />
      <glyph
         glyph-name=""
         unicode="Í"
         id="glyph142"
         d="m 439.59437,800 2.37953,-418.77807 v -86.89305 c 0.12025,0.01 0.24064,0.015 0.4106,0.0301 51.39945,0.006 93.06814,-41.66252 93.06182,-93.06198 0.007,-51.39885 -41.66237,-93.06799 -93.06182,-93.06182 h 83.27976 c 0,0 82.89385,-2.18279 82.63349,48.58738 -0.39706,81.07651 1.96818,220.14043 1.96818,220.14043 l -0.26926,421.86254 z m 4.28889,-529.2892 C 404.73393,270.7148 372.99611,238.97703 373,199.8277 c -0.004,-39.14933 31.73393,-70.88708 70.88326,-70.88311 39.14933,-0.004 70.88714,31.73378 70.88325,70.88311 0.004,39.14932 -31.73393,70.88707 -70.88325,70.8831 z" />
      <glyph
         glyph-name=""
         unicode="Î"
         id="glyph143" />
      <glyph
         glyph-name=""
         unicode="Ï"
         id="glyph144" />
      <glyph
         glyph-name=""
         unicode="Ð"
         id="glyph145" />
      <glyph
         glyph-name=""
         unicode="Ñ"
         id="glyph146" />
      <glyph
         glyph-name=""
         unicode="Ò"
         id="glyph147" />
      <glyph
         glyph-name=""
         unicode="Ó"
         id="glyph148"
         d="m 569.58119,944 -88.77304,-0.22779 -37.00586,-109.8394 50.05804,0.65017 z m -98.90835,-142.60254 -30.40623,-3.5064 c -41.43215,-4.74371 -72.85753,-16.86453 -105.47872,-40.68877 -33.76072,-24.65679 -49.79992,-45.05215 -69.82812,-88.83217 -19.90615,-43.51453 -27.05639,-82.95801 -26.95879,-148.6131 0.12068,-91.27026 23.30847,-157.87798 71.62522,-205.80131 31.22581,-30.97237 58.9007,-42.40727 109.80985,-56.48088 17.5435,-4.85186 33.54017,-5.18825 50.64741,-5.18825 2.73103,0 0.58983,126.69019 0.58983,276.57226 z m 23.42327,-0.58682 V 528.304 c 0,-149.88101 -1.90315,-269.98937 0.0302,-271.91651 l 0.58833,-0.58681 c 5.47578,-5.45633 5.39251,-4.60115 50.64757,1.11781 52.40107,6.62633 78.58328,25.50851 109.80968,56.48073 48.3163,47.92347 71.51133,114.5312 71.62538,205.80146 0.0906,65.65494 -7.0528,105.09857 -26.95894,148.61294 -20.02805,43.78018 -36.06726,64.17494 -69.82813,88.83218 -32.62104,23.82439 -64.04642,35.94687 -105.47857,40.68875 z" />
      <glyph
         glyph-name=""
         unicode="Ô"
         id="glyph149" />
      <glyph
         glyph-name=""
         unicode="Õ"
         id="glyph150" />
      <glyph
         glyph-name=""
         unicode="Ö"
         id="glyph151" />
      <glyph
         glyph-name=""
         unicode="×"
         id="glyph152" />
      <glyph
         glyph-name=""
         unicode="Ø"
         id="glyph153" />
      <glyph
         glyph-name=""
         unicode="Ù"
         id="glyph154" />
      <glyph
         glyph-name=""
         unicode="Ú"
         id="glyph155"
         d="m 585.83533,944 -88.54495,-0.2272 -36.91091,-109.55718 49.92973,0.61992 z M 278,800.05896 V 397.74268 l 213.67732,402.31628 z m 253.64446,0 L 278,320.65922 l 0.9404,-68.64946 h 128.12993 l 298.28429,548.0492 z" />
      <glyph
         glyph-name=""
         unicode="Û"
         id="glyph156" />
      <glyph
         glyph-name=""
         unicode="Ü"
         id="glyph157" />
      <glyph
         glyph-name=""
         unicode="Ý"
         id="glyph158" />
      <glyph
         glyph-name=""
         unicode="Þ"
         id="glyph159" />
      <glyph
         glyph-name=""
         unicode="ß"
         id="glyph160" />
      <glyph
         glyph-name=""
         unicode="à"
         id="glyph161"
         d="m 415.65862,944 75.43278,-109.04003 49.86785,-0.61915 -36.8653,109.42174 z M 380.11413,799.00506 c -15.84973,-0.28402 -79.24129,-4.1576 -79.01362,-48.54719 0.39824,-81.00902 -1.96639,-219.9584 -1.96639,-219.9584 -0.56805,-147.66222 0.85207,-278.13289 0.85207,-278.13289 0,0 20.4648,-0.9197 84.59031,-0.03 l 82.71197,1.17517 v 272.73199 86.82105 c -0.12024,-0.01 -0.23893,-0.015 -0.40875,-0.03 -51.35681,-0.006 -92.99118,41.62792 -92.98487,92.98487 -0.007,51.35697 41.62806,92.99164 92.98487,92.98487 h -83.2109 c 0,0 -1.28639,0.045 -3.55169,0 z m 87.1733,-20.95679 a 70.817455,70.817455 0 0 1 -70.82465,-70.8251 70.817455,70.817455 0 0 1 70.82465,-70.79503 70.817455,70.817455 0 0 1 70.82463,70.79503 70.817455,70.817455 0 0 1 -70.82463,70.8251 z M 485.33859,613.73954 V 435.1955 c 0,-98.19278 1.28338,-179.54307 2.84717,-180.80405 3.89748,-3.14098 5.4464,-3.01595 38.47959,3.02164 41.55097,7.59509 63.37398,16.69129 88.55285,36.98251 38.95897,31.39575 57.64973,75.04627 57.76333,134.84001 0.0752,43.01273 -5.69826,68.85088 -21.74937,97.35842 -16.14953,28.68203 -29.07334,42.0499 -56.29571,58.20335 -26.3034,15.60868 -51.65164,23.544 -85.06008,26.65085 z" />
      <glyph
         glyph-name=""
         unicode="á"
         id="glyph162" />
      <glyph
         glyph-name=""
         unicode="â"
         id="glyph163"
         d="m 426.56023,946 0.67576,-0.97225 h -2.64554 l -36.92046,-109.55598 49.94246,0.62007 32.48181,46.97363 32.01133,-46.26778 49.97182,-0.62006 -36.92031,109.58548 z M 376.23548,801.87563 c -15.8754,-0.28445 -79.35971,-4.16383 -79.13185,-48.61984 0.39883,-81.13024 -1.96919,-220.25805 -1.96919,-220.25805 -0.56891,-147.8832 0.85184,-278.5786 0.85184,-278.5786 0,0 20.49542,-0.89248 84.71705,0 l 82.8356,1.14834 v 273.1406 86.95112 c -0.1204,-0.01 -0.2393,-0.0151 -0.40937,-0.0301 -51.43381,-0.007 -93.13034,41.69021 -93.12401,93.12402 -0.007,51.43381 41.6902,93.13094 93.12401,93.12416 h -83.33542 c 0,0 -1.28831,0.0451 -3.55685,0 z m 87.3039,-20.95866 a 70.923428,70.923428 0 0 1 -70.93062,-70.93108 70.923428,70.923428 0 0 1 70.93062,-70.93047 70.923428,70.923428 0 0 1 70.93063,70.93047 70.923428,70.923428 0 0 1 -70.93063,70.93108 z m 18.07803,-164.55462 v -178.8112 c 0,-98.33956 1.2853,-179.84065 2.85159,-181.10352 3.90331,-3.14568 5.45454,-3.02046 38.53716,3.02617 41.61315,7.60645 63.46881,16.74592 88.68522,37.06735 39.01742,31.44273 57.73598,75.12907 57.84977,135.01229 0.0752,43.0771 -5.70664,68.95376 -21.78192,97.50412 -16.17356,28.72479 -29.1167,42.14247 -56.37995,58.32009 -26.34277,15.63204 -51.72895,23.57907 -85.18722,26.69058 z" />
      <glyph
         glyph-name=""
         unicode="ã"
         id="glyph164" />
      <glyph
         glyph-name=""
         unicode="ä"
         id="glyph165" />
      <glyph
         glyph-name=""
         unicode="å"
         id="glyph166" />
      <glyph
         glyph-name=""
         unicode="æ"
         id="glyph167" />
      <glyph
         glyph-name=""
         unicode="ç"
         id="glyph168"
         d="m 524.21872,799.97947 -0.9648,-267.64536 c -0.50337,-137.38705 -0.19327,-252.24857 0.67267,-269.54741 l -1.34534,-0.0599 31.39646,-72.74112 -87.02061,-1.43221 21.38934,-39.94107 h 125.52751 l -44.53451,106.12816 c 10.66045,-0.0301 23.44974,0.11976 39.09207,0.34008 l 82.4853,1.14309 V 528.11191 800 h -83.3632 z m -20.71638,-0.28314 -36.39992,-3.45395 c -49.58982,-4.68257 -87.21567,-16.64924 -126.25904,-40.17419 -40.40759,-24.34711 -59.59632,-44.4939 -83.56785,-87.72292 -23.82561,-42.96684 -32.39077,-81.91285 -32.27436,-146.74171 0.1693,-90.12025 27.90445,-155.89293 85.73312,-203.21351 37.37415,-30.58236 69.76191,-44.32358 131.4381,-55.77082 49.03249,-9.10045 51.33139,-9.29639 57.11644,-4.56379 2.3221,1.8968 4.21322,124.53603 4.21322,272.53184 z" />
      <glyph
         glyph-name=""
         unicode="è"
         id="glyph169"
         d="m 413.86288,943 75.4844,-109.15719 49.95084,-0.58522 -36.90487,109.50968 z M 275,799.2594 V 575.3037 l 189.1662,223.9557 z m 210.96825,0 V 529.02555 c 0,-148.61396 1.92923,-271.76624 4.26045,-273.67112 5.80939,-4.75343 8.11819,-4.5544 57.35518,4.58285 61.93442,11.49527 94.45711,25.29331 131.98749,56.00349 58.07052,47.51837 85.92099,113.56536 86.09159,204.0635 0.12033,65.09967 -8.48406,104.20862 -32.40925,147.35445 -24.07173,43.41034 -43.37013,63.64073 -83.94662,88.08961 -39.20658,23.62326 -76.96006,35.64038 -126.7573,40.34269 z m -132.3988,-153.70166 0.38062,-111.18407 v -0.12034 l -0.38062,-111.21354 110.5086,111.21354 h 0.0601 l -0.0299,0.0302 0.0299,0.0601 h -0.0601 z M 275,495.64701 V 252.47517 h 189.13687 z" />
      <glyph
         glyph-name=""
         unicode="é"
         id="glyph170"
         d="m 553.66116,943 -88.67484,-0.22753 -36.96492,-109.71789 50.00282,0.62082 z M 258,800.46691 V 576.17545 l 189.47504,224.29146 z m 211.34218,0 V 529.82223 c 0,-148.85689 1.9027,-272.2103 4.23772,-274.11812 5.81871,-4.76121 8.13128,-4.56185 57.44877,4.59032 62.03534,11.51401 94.61124,25.33442 132.20286,56.09487 58.16514,47.59577 86.0612,113.75053 86.23193,204.39649 0.1205,65.20589 -8.4979,104.34957 -32.46214,147.56582 -24.111,43.48101 -43.41153,63.77364 -84.05407,88.26241 -39.27055,23.66182 -77.11517,35.69856 -126.99352,40.40853 z M 336.69781,646.54413 337.10768,535.17865 v -0.1205 l -0.40987,-111.39517 110.68892,111.39517 h 0.0904 l -0.0301,0.0301 0.0301,0.0604 h -0.0904 z M 258,496.38863 V 252.79046 h 189.47504 z" />
      <glyph
         glyph-name=""
         unicode="ê"
         id="glyph171"
         d="m 416.58587,946 0.6767,-0.97363 h -2.64944 l -36.97245,-109.71073 50.01302,0.62096 32.52752,47.03998 32.05656,-46.33313 50.0424,-0.62095 -36.97245,109.74027 z M 246,801.49542 V 577.12848 l 189.4843,224.36694 z m 211.35575,0 V 530.79491 c 0,-148.88667 1.9031,-272.26525 4.23859,-274.17348 5.82005,-4.76216 8.16234,-4.59125 57.49004,4.56279 62.048,11.5162 94.60101,25.33959 132.20029,56.10616 58.177,47.60563 86.10815,113.7739 86.27907,204.4382 0.12053,65.21935 -8.49963,104.39995 -32.46876,147.62502 -24.11608,43.49002 -43.44979,63.75772 -84.10063,88.25134 -39.2787,23.66663 -77.10149,35.70599 -126.99017,40.41676 z M 324.68433,647.54121 325.09428,536.15286 v -0.12054 l -0.40995,-111.41849 110.71165,111.41849 h 0.0903 l -0.0302,0.0302 0.0302,0.0602 h -0.0903 z M 246,497.32538 V 253.7072 h 189.4843 z" />
      <glyph
         glyph-name=""
         unicode="ë"
         id="glyph172"
         d="m 420.84103,944 a 54.805185,54.805185 0 0 1 -54.81626,-54.81626 54.805185,54.805185 0 0 1 54.81626,-54.78605 54.805185,54.805185 0 0 1 54.78663,54.78605 A 54.805185,54.805185 0 0 1 420.84103,944 Z m 142.82866,0 a 54.805185,54.805185 0 0 1 -54.78664,-54.78664 54.805185,54.805185 0 0 1 54.78664,-54.81567 54.805185,54.805185 0 0 1 54.81565,54.81567 A 54.805185,54.805185 0 0 1 563.66969,944 Z M 275,802.02754 V 576.94545 l 190.1133,225.08209 z m 212.05707,0 V 530.42885 c 0,-149.38161 1.90879,-273.16923 4.25206,-275.08377 h 0.0303 c 5.83937,-4.77802 8.16023,-4.57794 57.65156,4.60648 62.25417,11.55445 94.91527,25.42373 132.63939,56.29246 58.37017,47.76368 86.39374,114.15164 86.56523,205.11698 0.12089,65.4359 -8.52774,104.7472 -32.57645,148.11518 -24.19615,43.63441 -43.5939,63.96924 -84.37969,88.54435 -39.40913,23.7452 -77.35783,35.82453 -127.41215,40.55095 z M 353.94559,647.56279 354.34482,535.80414 v -0.12093 l -0.39923,-111.78785 111.0791,111.78785 h 0.0606 l -0.0303,0.0303 0.0303,0.0606 h -0.0606 z M 275,496.87737 V 252.42113 h 190.1133 z" />
      <glyph
         glyph-name=""
         unicode="ì"
         id="glyph173" />
      <glyph
         glyph-name=""
         unicode="í"
         id="glyph174" />
      <glyph
         glyph-name=""
         unicode="î"
         id="glyph175"
         d="m 423.35632,944 0.67733,-0.97233 h -2.64533 l -36.92306,-109.56505 49.94644,0.6141 32.48406,46.97753 32.01426,-46.27205 49.97596,-0.62011 -36.92365,109.59453 z M 383.22817,799.83406 382.26035,530.90445 c -0.56894,-147.89543 -0.1702,-271.32855 0.85343,-274.30954 1.43291,-4.20961 20.49666,-5.15395 84.72375,-4.26079 l 82.87194,1.14843 V 526.64574 799.83796 H 466.9847 Z" />
      <glyph
         glyph-name=""
         unicode="ï"
         id="glyph176"
         d="m 560.88315,944 a 54.585892,54.585892 0 0 1 -54.59648,-54.59709 54.585892,54.585892 0 0 1 54.59648,-54.56666 54.585892,54.585892 0 0 1 54.56727,54.56666 A 54.585892,54.585892 0 0 1 560.88315,944 Z m -142.28667,-0.0301 A 54.585892,54.585892 0 0 1 364,889.40291 a 54.585892,54.585892 0 0 1 54.59648,-54.59633 54.585892,54.585892 0 0 1 54.56727,54.59633 54.585892,54.585892 0 0 1 -54.56727,54.56741 z m -14.61984,-143.7866 -0.96692,-269.07059 c -0.56931,-147.98926 -0.1702,-271.5007 0.85396,-274.48356 1.43383,-4.21231 20.51027,-5.15724 84.77811,-4.26366 l 82.92452,1.14916 v 273.33712 273.3365 h -83.77879 z" />
      <glyph
         glyph-name=""
         unicode="ð"
         id="glyph177" />
      <glyph
         glyph-name=""
         unicode="ñ"
         id="glyph178" />
      <glyph
         glyph-name=""
         unicode="ò"
         id="glyph179" />
      <glyph
         glyph-name=""
         unicode="ó"
         id="glyph180" />
      <glyph
         glyph-name=""
         unicode="ô"
         id="glyph181"
         d="m 411.6484,946 0.67554,-0.96979 h -2.63824 l -36.82694,-109.27789 49.81562,0.6185 32.39955,46.85431 31.92982,-46.15084 49.84504,-0.61851 -36.82634,109.30748 z m 32.92722,-145.51816 -30.28839,-3.46106 c -41.2315,-4.72072 -72.50485,-16.78225 -104.96805,-40.49171 -33.59737,-24.53783 -49.5586,-44.86234 -69.48981,-88.43095 -19.80975,-43.30318 -26.92537,-82.52727 -26.82839,-147.86381 0.12014,-90.82824 23.19605,-157.11281 71.2788,-204.80465 31.07474,-30.82237 58.61531,-42.20294 109.2779,-56.20794 17.45855,-4.82837 33.3779,-5.19151 50.40184,-5.19151 v 0.03 c 2.71765,0 0.6185,126.07665 0.6185,275.23301 z m 23.30953,-0.56747 V 528.7279 c 0,-149.15622 -1.89513,-268.68247 0.03,-270.60011 l 0.58397,-0.58398 c 5.44702,-5.4299 5.33907,-4.57886 50.37286,1.11241 52.14747,6.59483 78.20257,25.38556 109.2779,56.20794 48.08231,47.69184 71.19429,113.97639 71.30778,204.80465 0.12014,65.33714 -7.04821,104.56061 -26.85797,147.86381 -19.93119,43.5686 -35.89242,63.89312 -69.4898,88.43095 -32.4632,23.70946 -63.73654,35.77099 -104.96745,40.49171 z" />
      <glyph
         glyph-name=""
         unicode="õ"
         id="glyph182" />
      <glyph
         glyph-name=""
         unicode="ö"
         id="glyph183" />
      <glyph
         glyph-name=""
         unicode="÷"
         id="glyph184" />
      <glyph
         glyph-name=""
         unicode="ø"
         id="glyph185" />
      <glyph
         glyph-name=""
         unicode="ù"
         id="glyph186"
         d="m 382.96687,946 75.29687,-108.88586 49.82675,-0.61828 -36.81332,109.26704 z M 443.40374,799.48056 V 529.94758 c 0,-148.24535 1.89429,-271.09111 4.21987,-272.99126 5.79479,-4.74163 8.12652,-4.57146 57.24196,4.54311 61.77996,11.4667 94.19364,25.23047 131.63034,55.86435 57.92655,47.40019 85.73696,113.28325 85.90713,203.55658 0.12011,64.93795 -8.46343,103.94973 -32.32919,146.98839 -24.01147,43.30232 -43.26211,63.48261 -83.73778,87.87075 -39.10918,23.56399 -76.79829,35.58083 -126.47182,40.27144 z M 417.34701,641.44189 c -4.30495,0.2266 -12.64982,-1.3506 -33.26619,-5.39382 -41.49208,-8.13344 -63.25587,-17.89914 -88.39884,-39.62721 -38.9039,-33.62066 -57.56807,-80.34989 -57.68152,-144.37995 -0.06,-46.05949 5.68991,-73.72808 21.71833,-104.25483 16.12714,-30.71387 29.03223,-45.04413 56.21655,-62.34195 26.26607,-16.71421 51.57877,-25.21862 84.93967,-28.54783 l 24.47369,-2.43332 v 191.18811 c 0,105.14818 -1.28158,192.27026 -2.84151,193.62024 -1.45264,1.25306 -2.58639,2.0418 -5.15568,2.16651 z" />
      <glyph
         glyph-name=""
         unicode="ú"
         id="glyph187" />
      <glyph
         glyph-name=""
         unicode="û"
         id="glyph188"
         d="m 413.36569,947 0.67712,-0.96753 h -2.64454 l -36.91229,-109.53312 49.93189,0.61994 32.47472,46.96368 32.00481,-46.25856 49.96154,-0.61996 -36.91291,109.56262 z M 444.95956,799.93704 V 529.67538 c 0,-148.64638 1.92784,-271.82506 4.25956,-273.73033 5.81064,-4.75446 8.11902,-4.55539 57.36733,4.58383 61.94709,11.49771 94.44845,25.29871 131.9864,56.01548 58.08327,47.5284 85.9689,113.58969 86.13954,204.10722 0.12041,65.11362 -8.48632,104.2019 -32.41665,147.35698 -24.07642,43.41961 -43.37913,63.68338 -83.96431,88.13749 -39.21497,23.62773 -76.97639,35.64804 -126.78429,40.35134 z M 418.83219,641.4713 c -4.31643,0.22722 -12.6544,-1.35425 -33.32715,-5.40856 -41.60416,-8.15528 -63.45588,-17.94681 -88.66686,-39.73366 -39.00929,-33.7116 -57.72394,-80.5674 -57.83771,-144.77051 -0.0602,-46.18409 5.70547,-73.92768 21.77723,-104.53685 16.17077,-30.79697 29.11078,-45.16615 56.36864,-62.51076 26.33712,-16.75942 51.71814,-25.25703 85.16929,-28.59542 l 24.56953,-2.46819 v 191.70472 c 0,105.43306 -1.28503,192.79096 -2.8492,194.14445 -1.46108,1.26248 -2.61039,2.04734 -5.20377,2.17253 z" />
      <glyph
         glyph-name=""
         unicode="ü"
         id="glyph189"
         d="m 534.35541,945 a 54.85367,54.85367 0 0 1 -54.83496,-54.86431 54.85367,54.85367 0 0 1 54.83496,-54.83495 54.85367,54.85367 0 0 1 54.86476,54.83495 A 54.85367,54.85367 0 0 1 534.35541,945 Z m -142.95486,-0.0303 a 54.85367,54.85367 0 0 1 -54.86416,-54.8345 54.85367,54.85367 0 0 1 54.86416,-54.86476 54.85367,54.85367 0 0 1 54.83496,54.86476 54.85367,54.85367 0 0 1 -54.83496,54.8345 z M 443.16082,800.38905 V 528.5204 c 0,-149.51391 1.91065,-273.4115 4.25598,-275.32789 h 0.0303 c 5.84379,-4.78207 8.16625,-4.58199 57.70198,4.61058 62.30862,11.56482 94.99967,25.44636 132.75672,56.3424 58.42225,47.80595 86.47018,114.25264 86.64181,205.29845 0.12102,65.49363 -8.53539,104.83925 -32.60538,148.2462 -24.21756,43.67302 -43.63231,64.02585 -84.4542,88.62268 -39.44399,23.76563 -77.4264,35.85609 -127.52439,40.58684 z M 416.88173,640.9688 c -4.34179,0.22854 -12.72886,-1.36063 -33.52166,-5.43999 -41.84714,-8.20303 -63.82622,-18.05169 -89.1845,-39.96569 -39.23679,-33.90837 -58.06067,-81.03746 -58.1751,-145.61544 -0.0605,-46.45363 5.73859,-74.35898 21.90432,-105.14696 16.26515,-30.97669 29.28052,-45.39992 56.69747,-62.84577 26.49083,-16.85724 52.02014,-25.43425 85.66652,-28.79211 l 24.71231,-2.4826 v 192.82359 c 0,106.04855 -1.29253,193.94581 -2.86581,195.30734 -1.46962,1.26984 -2.62563,2.02493 -5.23416,2.15645 z" />
      <glyph
         glyph-name=""
         unicode="ý"
         id="glyph190" />
      <glyph
         glyph-name=""
         unicode="þ"
         id="glyph191" />
    </font>
</defs>
</svg>
