<svg xmlns="http://www.w3.org/2000/svg">
<defs>
<font
       horiz-adv-x="1000"
       id="font20"
       inkscape:label="Libre Franklin Eorzea">
      <font-face
         units-per-em="1000"
         ascent="750"
         cap-height="600"
         x-height="400"
         descent="200"
         id="font-face20"
         font-family="Libre Franklin" />
      <missing-glyph
         d="M0,0h1000v1000h-1000z"
         id="missing-glyph20" />
      <glyph
         glyph-name=""
         unicode=" "
         id="glyph20" />
      <glyph
         glyph-name=""
         unicode="!"
         id="glyph21" />
      <glyph
         glyph-name=""
         unicode="&quot;"
         id="glyph22" />
      <glyph
         glyph-name=""
         unicode="#"
         id="glyph23" />
      <glyph
         glyph-name=""
         unicode="$"
         id="glyph24"
         d="m 496.0981,568.94856 c -22.1219,0 -42.3564,-3.90377 -60.6866,-11.71496 -18.64515,-7.81101 -33.97018,-18.14602 -45.97912,-30.97804 -12.32515,-12.83231 -19.74249,-26.48343 -22.27076,-40.98968 -0.36035,-2.23112 -0.17939,-3.77504 0.42066,-4.61254 0.36033,-0.83499 1.43344,-1.53664 3.32372,-2.09666 l 34.12492,-4.58637 c 1.57791,-0.28415 2.84989,-0.1429 3.79187,0.41908 0.63655,0.83657 1.09847,2.07332 1.40961,3.74789 2.21381,11.15839 7.27878,21.21258 15.17788,30.13925 7.90042,9.20603 18.00572,16.45259 30.33032,21.7528 12.0095,5.57911 25.6024,8.3866 40.7719,8.3866 21.4902,0 39.8372,-4.88669 55.0069,-14.65038 15.1694,-9.48463 26.6955,-23.86389 34.5959,-43.11238 7.5846,-18.96959 11.3837,-42.25375 11.3837,-69.87092 0,-29.01219 -3.7978,-53.27912 -11.3837,-72.80621 -7.9004,-19.24863 -19.4265,-33.6276 -34.5959,-43.11253 -15.4853,-9.48463 -34.1431,-14.23101 -55.9489,-14.23101 -15.4857,0 -28.9232,2.24604 -40.3003,6.70937 -11.3778,4.74255 -20.8614,10.86615 -28.44634,18.3981 -7.58479,7.81071 -13.42489,16.04002 -17.53342,24.68808 -4.10378,8.92667 -6.30568,17.5771 -6.62237,25.9461 l -0.4794,25.10731 c -0.63655,2.79051 0.93657,4.19332 4.73969,4.19332 h 77.27704 c 1.8958,0 3.3178,0.27939 4.2657,0.83815 0.6301,0.83657 0.9413,2.0995 0.9413,3.77408 v 17.97872 c 0,2.5108 -1.5715,3.77406 -4.7397,3.77406 l -117.55331,-0.41907 c -2.21397,0 -3.94187,-0.42384 -5.20767,-1.25881 -1.26041,-0.83657 -1.91394,-2.09953 -1.91394,-3.77409 V 259.7174 c 0,-1.19216 0.17937,-2.15842 0.53971,-2.93545 v -87.79726 c 0,-2.33953 0.42068,-4.00519 1.3382,-5.00575 0.90006,-0.99847 2.41176,-1.49375 4.51175,-1.49375 h 30.60373 c 4.49967,0 6.74602,2.51209 6.74602,7.5218 v 116.80976 c 4.07379,-4.31237 8.58965,-8.47187 13.61508,-12.4488 9.16442,-7.25305 20.38083,-13.12251 33.65343,-17.58569 13.2735,-4.46349 28.9088,-6.68317 46.922,-6.68317 h 0.031 c 30.3391,0 56.5684,6.26426 78.6905,18.81752 22.1226,12.83233 39.0236,30.97549 50.717,54.40809 11.6933,23.71182 17.534,52.02299 17.534,84.9407 0,33.75427 -6.1515,62.62709 -18.4767,86.61797 -12.325,23.99074 -29.7168,42.24788 -52.155,54.80131 -22.445,12.83327 -48.5195,19.26388 -78.2262,19.26388 z M 407.83397,354.35624 h 72.46663 z" />
      <glyph
         glyph-name=""
         unicode="'"
         id="glyph27"
         d="m 512.94896,820.34759 q -1.1586,-4.04779 -2.89198,-6.36079 -1.73279,-1.73478 -6.93885,-1.73478 h -13.87862 q -4.04516,0 -5.78382,1.15704 -1.15394,1.73464 -2.31253,5.78258 l -13.87785,120.27863 q -0.58549,2.89136 1.15859,4.04747 2.313,1.73417 4.04577,1.73417 h 49.73006 q 5.78396,0 5.20436,-5.78273 z" />
      <glyph
         glyph-name=""
         unicode=")"
         id="glyph29" />
      <glyph
         glyph-name=""
         unicode="*"
         id="glyph30" />
      <glyph
         glyph-name=""
         unicode="+"
         id="glyph31" />
      <glyph
         glyph-name=""
         unicode=","
         id="glyph32" />
      <glyph
         glyph-name=""
         unicode="-"
         id="glyph33"
         d="m 528.97245,522.86806 q 0,-8.17316 -9.26281,-8.17316 h -43.04553 q -7.62832,0 -7.62832,7.62818 v 44.13504 q 0,6.53852 4.90389,6.53852 h 50.12887 q 4.9039,0 4.9039,-5.99355 z" />
      <glyph
         glyph-name=""
         unicode="."
         id="glyph34"
         d="m 481.69474,27.61154 q -10.86705,0 -10.86705,11.77264 l -0.90768,893.81388 q 0,5.43401 1.81198,8.15029 2.71628,2.71652 8.15028,2.71652 h 39.84569 q 10.86728,0 10.86728,-10.86705 V 37.57272 q 0,-9.96147 -9.96155,-9.96147 z" />
      <glyph
         glyph-name=""
         unicode="/"
         id="glyph35" />
      <glyph
         glyph-name=""
         unicode="0"
         id="glyph36"
         d="m 493.65586,814.10129 c -11.09901,0 -23.20382,-0.27567 -36.32101,-0.78529 H 421.0137 397.55626 c -70.12702,-1.00581 -126.64436,-12.10242 -169.52792,-33.29431 -43.38794,-21.1892 -74.91037,-51.9554 -94.58623,-92.31637 -20.18041,-40.36096 -30.26764,-90.29327 -30.26764,-149.8251 0,-63.06334 10.84374,-115.79899 32.53765,-158.17755 21.69403,-42.37884 54.98179,-74.15401 99.88323,-95.34306 44.90131,-21.18936 101.41896,-31.78097 169.52778,-31.78097 h 58.38162 c 1.27553,-0.45001 2.75341,-0.69886 4.42382,-0.69886 h 111.23348 c 68.10897,0 124.62646,10.59148 169.5279,31.78096 44.90131,21.18891 78.1892,52.96423 99.88311,95.34309 21.69406,42.37839 32.5378,95.11403 32.5378,158.17738 0,59.53182 -10.08723,109.46428 -30.26764,149.8248 -19.67616,40.36067 -51.19859,71.15593 -94.58653,92.34499 -42.88326,21.19204 -99.40091,32.28865 -169.52777,33.29446 h -23.45744 -36.32116 c -1.69514,0.0745 -3.22816,0.0893 -4.88961,0.14901 -1.75533,0.82404 -3.88082,1.28151 -6.46091,1.28151 v 0.0262 z m -80.96584,-55.23855 h 34.05112 c 5.04502,0 7.56687,-3.53049 7.56687,-10.59356 V 671.75605 H 439.84364 427.6783 c -36.41099,-0.52303 -65.77235,-6.28435 -88.03799,-17.28754 -22.52776,-11.00168 -38.88158,-26.97734 -49.09756,-47.93333 -10.47809,-20.95586 -15.71592,-46.88371 -15.71592,-77.79372 0,-32.74358 5.61602,-60.12638 16.87998,-82.12992 11.26395,-22.00384 28.57801,-38.50342 51.89151,-49.5051 23.31361,-11.00186 52.64576,-16.50166 88.00894,-16.50166 h 22.70075 v -65.22102 c 0,-5.54957 -3.02595,-8.32353 -9.08022,-8.32353 h -28.75426 c -56.00076,0 -101.42225,7.31325 -136.23347,21.94409 -34.81124,15.13491 -60.28149,39.34484 -76.42567,72.64229 -16.64886,33.2979 -24.97094,77.45905 -24.97094,132.44995 0,57.51378 8.57419,102.40242 25.72745,134.69092 16.64889,32.79275 42.37126,55.99373 77.18251,69.61562 34.30682,13.62144 77.963,20.45964 130.93661,20.45964 z m 124.85402,-0.69884 h 34.05097 c 52.9736,0 96.60086,-6.80903 130.90756,-20.43076 34.8114,-13.62174 60.56267,-36.82288 77.21156,-69.61547 17.15341,-32.28865 25.72759,-77.20617 25.72759,-134.72012 0,-54.99088 -8.32207,-99.12298 -24.97093,-132.42088 -16.14434,-33.2973 -41.64363,-57.50738 -76.45487,-72.64232 -34.8111,-14.63069 -80.20367,-21.97313 -136.20427,-21.97313 h -28.75427 c -6.05412,0 -9.08036,2.80303 -9.08036,8.35275 v 68.50966 h 21.3911 c 35.36333,0 64.69547,5.4995 88.00896,16.50166 23.31347,11.00168 40.59863,27.50126 51.86244,49.50495 11.2638,22.00369 16.90917,49.35742 16.90917,82.101 0,30.90986 -5.23768,56.86694 -15.71592,77.8228 -10.21595,20.95598 -26.599,36.93164 -49.1266,47.93332 -22.26579,11.00319 -51.59796,16.76376 -88.0091,17.28755 h -12.19423 -13.12582 v 73.19528 c 0,7.06277 2.522,10.59371 7.56702,10.59371 z m -7.56702,-112.07764 h 17.46217 c 27.50482,0 50.1731,-3.55029 67.98574,-10.62276 18.07459,-7.07261 31.43125,-19.12004 40.07547,-36.14652 8.90632,-16.7648 13.35856,-40.0735 13.35856,-69.93568 0,-28.55223 -4.33602,-51.48261 -12.98009,-68.77149 -8.38256,-17.28857 -21.59362,-29.85979 -39.66805,-37.71811 -18.07461,-7.59639 -41.67436,-11.37944 -70.75065,-11.37944 h -14.93004 c -0.20871,0 -0.35463,0.0447 -0.55133,0.0597 z m -94.44083,-2.61928 h 17.66586 c 0.39937,0 0.76743,-0.0597 1.10566,-0.14901 V 409.12214 c -0.55134,-0.15202 -1.17271,-0.23104 -1.89167,-0.23104 h -14.93019 c -29.07629,0 -52.64684,3.7829 -70.72142,11.3796 -18.07461,7.85831 -31.31472,20.4586 -39.69712,37.74715 -8.64438,17.28888 -12.95105,40.19021 -12.95105,68.74244 0,29.86218 4.45197,53.17088 13.35844,69.93568 8.64435,17.02648 22.00101,29.07391 40.07559,36.14652 17.81249,7.0726 40.48093,10.62276 67.98575,10.62276 z" />
      <glyph
         glyph-name=""
         unicode="1"
         id="glyph37"
         d="m 361.62156,811.8602 c -2.02472,0 -3.43619,-0.56523 -4.19443,-1.7187 -0.75914,-1.15584 -1.13646,-3.45991 -1.13646,-6.93282 v -36.46956 c 0,-3.85902 0.37732,-6.55726 1.13646,-8.0979 1.01117,-1.53989 2.8004,-2.3014 5.33074,-2.3014 h 270.14302 c 3.28858,0 4.95209,2.30604 4.95209,6.93267 v 41.65489 c 0,4.62903 -1.78969,6.93282 -5.33074,6.93282 z M 473.36074,674.72041 c -4.62903,0 -6.93282,-2.67129 -6.93282,-7.98129 V 260.50505 c 0,-3.03607 0.56526,-5.12612 1.7187,-6.26288 1.15584,-1.13346 3.48914,-1.68932 6.9619,-1.68932 H 511.549 c 3.85887,0 6.55729,0.55183 8.09775,1.68932 1.54004,1.51632 2.30155,4.15834 2.30155,7.95235 v 405.12715 c 0,4.93105 -2.306,7.39874 -6.93267,7.39874 z" />
      <glyph
         glyph-name=""
         unicode="2"
         id="glyph38"
         d="m 237.79867,814.84092 c -4.63559,0 -7.88248,-0.75884 -9.73537,-2.29554 C 226.67493,811.00848 226,808.31641 226,804.46644 v -36.38402 c 0,-3.46474 0.67847,-5.76357 2.0633,-6.9164 1.3882,-1.15164 3.93371,-1.71468 7.64295,-1.71468 h 496.3579 c 6.48758,0 9.73542,2.29838 9.73542,6.9164 v 41.5569 c 0,4.61597 -3.01259,6.91657 -9.03803,6.91657 z m 75.79051,-134.05739 c -2.69598,0 -4.63098,-0.98052 -5.78307,-2.90618 -1.16801,-1.5397 -1.35402,-3.47202 -0.58181,-5.78307 L 450.46493,260.30313 c 1.54027,-5.39007 6.1613,-8.07873 13.8618,-8.07873 h 39.29024 c 6.54591,0 10.77575,2.8843 12.69964,8.66008 l 146.11747,411.2098 c 1.15164,2.31179 1.15164,4.24354 0,5.78307 -1.15312,1.91883 -3.07507,2.8989 -5.75407,2.90618 h -0.0288 -34.05932 c -4.62308,0 -7.50787,-2.12903 -8.66008,-6.36422 L 492.05091,324.41158 c -2.69594,-7.70531 -5.57846,-7.89663 -8.65996,-0.58176 L 363.25279,673.83767 c -1.54044,4.62029 -4.81786,6.94545 -9.82258,6.94545 z" />
      <glyph
         glyph-name=""
         unicode="3"
         id="glyph39"
         d="m 238.65039,811.91797 c -4.67456,0 -7.94415,-0.77282 -9.8125,-2.30859 -1.39977,-1.53696 -2.10156,-4.22986 -2.10156,-8.08008 v -36.36328 c 0,-3.46483 0.70492,-5.77287 2.10156,-6.92579 1.40022,-1.1517 3.97098,-1.72851 7.71094,-1.72851 h 500.48633 c 6.54157,0 9.81445,2.30731 9.81445,6.92578 v 41.55469 c 0,4.61609 -3.03775,6.92578 -9.11328,6.92578 z m 86.56836,-137.29883 c -2.65015,0 -4.14604,-1.14087 -4.55078,-3.41797 -0.37973,-1.89751 -5.8e-4,-3.60435 1.13476,-5.12109 L 448.71875,474.85547 c 1.89542,-2.65416 2.8457,-5.12135 2.8457,-7.39844 0.38063,-1.89811 -0.38011,-4.17547 -2.27539,-6.83008 L 318.96094,264.28125 c -3.4146,-4.55211 -4.55332,-7.77828 -3.41797,-9.67578 1.13772,-1.51657 3.22335,-2.27539 6.25976,-2.27539 h 37.5625 c 1.89587,0 3.7981,0.3822 5.69336,1.14258 1.89528,0.76037 3.22595,1.89914 3.98633,3.41601 L 475.4707,418.51758 c 3.03302,4.55269 5.31498,6.83008 6.83008,6.83008 1.89869,0 3.98372,-1.89836 6.25977,-5.69336 L 596.69336,256.88672 c 1.89722,-3.03478 4.93354,-4.55078 9.10547,-4.55078 h 43.2539 c 3.41841,0 5.69473,0.75852 6.83008,2.27539 1.51481,1.89673 0.57123,5.12059 -2.84375,9.67187 L 518.1582,466.32227 c -1.51508,2.65594 -2.27539,4.74304 -2.27539,6.25976 0,1.89647 0.76031,3.98268 2.27539,6.25977 l 126.34375,188.3789 c 1.1443,1.51732 1.54732,3.03407 1.14258,4.55078 0,1.89706 -1.33203,2.84766 -3.98828,2.84766 h -41.54492 c -2.2759,0 -4.17632,-0.38082 -5.69141,-1.13672 -1.14056,-0.76023 -2.28262,-2.08926 -3.41797,-3.98633 l -99.5957,-151.95507 c -1.8957,-2.65802 -3.79809,-3.98633 -5.69336,-3.98633 -1.5157,0 -3.22582,1.32846 -5.12109,3.98633 l -99.59766,151.95507 c -0.76038,1.89707 -1.90092,3.22595 -3.41602,3.98633 -1.1377,0.75293 -3.22348,1.13672 -6.25976,1.13672 z" />
      <glyph
         glyph-name=""
         unicode="4"
         id="glyph40"
         d="m 249.73557,811.89823 c -4.35939,0 -7.39105,-0.78434 -9.13358,-2.31215 -1.30523,-1.52869 -1.96541,-4.20606 -1.96541,-8.03522 v -36.15841 c 0,-3.44602 0.6615,-5.73241 1.96541,-6.87915 1.30523,-1.14542 3.67968,-1.7344 7.16802,-1.7344 h 466.79323 c 6.10103,0 9.13358,2.3151 9.13358,6.90801 v 41.33217 c 0,4.59083 -2.83129,6.87899 -8.49769,6.87899 z M 388.35728,675.15535 c -4.56405,0 -6.85014,-2.68197 -6.85014,-8.00637 V 259.83935 c 0,-2.66287 0.56827,-4.7514 1.70526,-6.27196 1.14097,-1.13803 3.25747,-1.7054 6.30097,-1.7054 h 249.84286 c 2.28077,0 4.00688,0.56679 5.14459,1.7054 1.13209,1.13948 1.70526,2.66509 1.70526,4.56672 v 30.23318 c 0,3.80458 -2.28757,5.72294 -6.85014,5.72294 H 441.97322 c -3.80562,0 -5.69393,1.88993 -5.69393,5.69406 v 367.94273 c 0,4.94436 -2.28757,7.42833 -6.85014,7.42833 z" />
      <glyph
         glyph-name=""
         unicode="5"
         id="glyph41"
         d="m 232.26854,811.88704 c -4.74763,0 -8.07786,-0.78918 -9.97533,-2.32661 -1.42203,-1.53803 -2.15211,-4.23213 -2.15211,-8.08486 v -36.38248 c 0,-3.46736 0.73261,-5.76808 2.15211,-6.92179 1.42201,-1.1525 4.02441,-1.74514 7.82323,-1.74514 h 508.33665 c 6.64422,0 9.9463,2.32945 9.9463,6.95081 v 41.55942 c 0,4.61927 -3.07783,6.95065 -9.24825,6.95065 z M 493.98382,673.65697 c -35.77034,0 -66.7658,-8.48406 -92.94838,-25.44745 -25.81346,-16.59425 -45.72275,-40.76024 -59.73575,-72.47399 -13.64448,-31.34493 -20.47423,-68.77435 -20.47423,-112.28842 0,-43.51376 6.82975,-81.12708 20.47423,-112.84083 14.013,-31.71361 34.10604,-56.03447 60.28848,-72.9977 26.55112,-16.96307 58.09811,-25.4473 94.60596,-25.4473 16.59441,0 31.87935,2.02151 45.8925,6.07824 14.38185,4.05598 27.49027,9.59965 39.29071,16.60617 11.80061,7.37563 22.12274,15.46332 30.97312,24.31324 8.85022,9.21922 16.23167,19.019 22.13197,29.34441 6.26913,10.32512 10.86414,20.83145 13.81422,31.5257 0.73708,2.58377 0.73708,4.42064 0,5.52596 -0.73707,1.10187 -1.65685,1.83866 -2.76261,2.21002 l -32.63085,7.73614 c -3.31936,0.73856 -5.52491,0.003 -6.63083,-2.21019 -10.69423,-27.65748 -24.90544,-47.75066 -42.60619,-60.28848 -17.33206,-12.53827 -39.07927,-18.81648 -65.26157,-18.81648 -40.93311,0 -71.53187,14.21134 -91.81416,42.60619 -20.28201,28.39485 -30.44957,70.23525 -30.44957,125.55005 0,57.1581 10.35132,99.94729 31.00215,128.342 20.65083,28.39498 50.14696,42.57714 88.49868,42.57714 25.44478,0 46.64059,-7.3524 63.60383,-22.10293 17.33206,-14.38183 28.57353,-33.37209 33.73602,-56.973 0.3663,-1.84313 0.92021,-3.31592 1.65789,-4.42064 0.73855,-1.1138 2.0233,-1.50541 3.86805,-1.13465 l 41.50104,3.34468 c 2.21122,0 3.50221,0.55093 3.86792,1.65788 0.73707,1.10636 0.73707,3.31147 0,6.63098 -2.21285,15.4879 -7.75564,30.03799 -16.60616,43.68217 -8.85038,13.64433 -20.09155,25.64981 -33.73587,35.97537 -13.64447,10.32512 -29.11315,18.44171 -46.44523,24.34214 -16.96308,6.26988 -34.66666,9.39373 -53.10493,9.39373 z" />
      <glyph
         glyph-name=""
         unicode="6"
         id="glyph42"
         d="m 254.9734,811.87362 c -4.71343,0 -7.99066,-0.7554 -9.87445,-2.28086 -1.41179,-1.52694 -2.13675,-4.20165 -2.13675,-8.02659 v -36.12024 c 0,-3.44235 0.72732,-5.72634 2.13675,-6.87173 1.41176,-1.14419 3.99538,-1.73271 7.76682,-1.73271 H 757.5094 c 6.59618,0 9.90342,2.28353 9.90342,6.87188 v 41.28837 c 0,4.58614 -3.05565,6.87188 -9.18174,6.87188 z M 362.61222,674.75525 c -3.03126,0 -5.32737,-0.76574 -6.84292,-2.28071 -1.13533,-1.13977 -1.70345,-3.03718 -1.70345,-5.68793 V 262.15942 c 0,-6.06178 2.66465,-9.0951 7.96895,-9.0951 h 83.52978 c 51.14969,0 93.60946,7.96478 127.33025,23.87812 33.72095,15.91273 58.72019,39.77871 75.01226,71.60507 16.29205,31.8262 24.42671,71.4234 24.42671,118.78389 0,44.70826 -7.56771,82.20773 -22.72311,112.51839 -14.77652,30.31093 -38.47249,53.41131 -71.05664,69.3242 -32.20539,15.91525 -74.63617,24.24872 -127.30141,25.00415 h -17.61262 -27.28501 c -9.85111,0.38581 -18.94961,0.578 -27.28501,0.578 z m 51.71171,-41.49059 h 25.58156 c 39.78303,0 72.54854,-5.10177 98.31281,-15.3316 26.14318,-10.22987 45.47388,-27.66184 57.97721,-52.28916 12.88206,-24.24857 19.31609,-57.97838 19.31609,-101.17124 0,-41.29797 -6.26431,-74.4322 -18.76764,-99.43884 -12.12429,-25.0062 -31.25645,-43.20381 -57.39963,-54.57017 -26.14316,-10.98777 -60.24093,-16.48646 -102.29727,-16.48646 h -21.59711 c -4.54681,0 -6.81393,2.09741 -6.81393,6.2655 v 325.08186 c 0,5.30458 1.89932,7.94011 5.68791,7.94011 z" />
      <glyph
         glyph-name=""
         unicode="7"
         id="glyph43"
         d="m 216.06603,814.58509 c -6.046,0 -9.06603,-3.52512 -9.06603,-10.57716 V 264.4874 c 0,-4.03186 0.75877,-6.80135 2.26647,-8.31069 1.50934,-1.50638 4.53013,-2.23731 9.06619,-2.23731 h 47.59708 c 5.04041,0 8.56509,0.72752 10.57715,2.23731 2.01193,2.01369 3.02198,5.53822 3.02198,10.57715 v 538.00956 c 0,6.54843 -3.02286,9.82167 -9.06604,9.82167 z m 360.34882,-4.96916 c -24.34425,0 -47.72043,-4.15936 -70.11705,-12.43687 -22.88355,-7.79041 -43.32672,-18.50594 -61.34155,-32.13825 -18.01468,-13.63289 -32.88987,-29.43705 -44.57497,-47.45172 -11.6854,-18.01468 -18.98857,-37.26034 -21.90982,-57.70916 -0.97448,-4.38209 -0.97448,-7.28578 0,-8.74646 0.48949,-1.45951 2.19475,-2.20831 5.11422,-2.20831 l 54.77439,-4.38758 c 2.43489,-0.49543 4.14032,0.012 5.11422,1.48181 0.97448,1.45803 1.72193,3.4058 2.20843,5.84056 6.8161,31.16046 21.66226,56.24297 44.54598,75.23124 22.3966,19.47522 50.38263,29.20332 83.97769,29.20332 50.63602,0 89.60579,-18.73716 116.87146,-56.2272 27.26548,-37.4899 40.88469,-93.97107 40.88469,-169.43739 0,-73.03276 -13.37968,-128.31523 -40.15822,-165.80527 -26.77884,-37.49007 -67.21499,-56.22736 -121.25917,-56.22736 -34.56882,0 -63.27359,8.29031 -86.15715,24.84475 -23.37051,16.55368 -42.13682,43.07336 -56.25637,79.58997 -1.45949,2.92287 -4.36393,3.91015 -8.74645,2.93463 l -43.09315,-10.22843 c -1.45951,-0.49543 -2.68736,-1.48034 -3.66126,-2.93463 -0.9745,-1.45801 -0.9745,-3.88279 0,-7.29351 3.89514,-14.11969 10.00035,-28.00788 18.27756,-41.64033 7.79013,-13.63261 17.51807,-26.53293 29.20332,-38.70529 11.68526,-11.68465 25.30431,-22.40016 40.88456,-32.13809 15.5804,-9.25095 32.88019,-16.55458 51.86862,-21.9098 18.50164,-5.35598 38.70543,-8.01998 60.61509,-8.01998 48.2017,0 89.8358,11.19443 124.89141,33.59105 34.56897,22.39675 61.08836,54.54273 79.58997,96.41458 18.01484,41.87199 27.02404,91.52873 27.02404,148.98052 0,57.45209 -9.0092,106.86902 -27.02404,148.25405 -18.50161,41.87154 -44.78146,73.74898 -78.86347,95.6588 -34.56882,22.39675 -75.45517,33.62005 -122.68298,33.62005 z" />
      <glyph
         glyph-name=""
         unicode="8"
         id="glyph44"
         d="m 469.14398,811.89152 v -0.0297 c -2.52381,0 -4.61342,-0.43377 -6.34649,-1.22227 -0.92863,-0.0297 -1.76797,-0.0447 -2.7076,-0.0895 h -36.27413 -23.40657 c -69.9964,-1.00463 -126.39815,-12.06475 -169.20181,-33.21729 -43.30719,-21.1497 -74.77246,-51.8843 -94.41178,-92.17028 -20.14282,-40.28536 -30.21872,-90.12967 -30.21872,-149.55086 0,-62.94604 10.80672,-115.57742 32.46038,-157.87712 21.65352,-42.30002 54.89241,-74.01913 99.71026,-95.16869 44.81802,-21.15 101.21977,-31.73267 169.20182,-31.73267 h 111.03525 c 1.43987,0 2.69671,0.21463 3.84265,0.55149 h 56.59462 c 67.98222,0 124.38397,10.58269 169.20197,31.73268 44.81787,21.14941 78.05676,52.86868 99.71028,95.16868 21.65366,42.29972 32.48958,94.93108 32.48958,157.87715 0,59.42116 -10.07589,109.26549 -30.21886,149.55086 -19.63932,40.28577 -51.10444,71.02038 -94.41178,92.17024 -42.80351,21.15254 -99.20541,32.21338 -169.20181,33.21727 h -23.43563 -36.24506 c -13.09293,0.51277 -25.19552,0.78554 -36.27411,0.78554 z m 68.73465,-55.13909 h 34.00339 c 52.87508,0 96.41389,-6.81157 130.65685,-20.40786 34.74657,-13.59644 60.44293,-36.75989 77.06074,-69.49155 17.12148,-32.22859 25.67728,-77.03467 25.67728,-134.44151 0,-54.88868 -8.30242,-98.96394 -24.92022,-132.19985 -16.11444,-33.23547 -41.55757,-57.41251 -76.304,-72.51933 -34.74644,-14.60345 -80.05887,-21.8926 -135.95533,-21.8926 h -28.7049 c -6.04302,0 -9.05396,2.75769 -9.05396,8.29705 v 432.05865 c 0,7.05004 2.50414,10.597 7.54015,10.597 z M 415.5187,756.20091 h 33.97434 c 5.03585,0 7.5692,-3.54693 7.5692,-10.59697 V 313.54543 c 0,-5.53952 -3.03985,-8.29719 -9.08302,-8.29719 h -28.7049 c -55.89661,0 -101.20903,7.28911 -135.95547,21.89273 -34.74644,15.10684 -60.16035,39.28373 -76.27479,72.51917 -16.6178,33.23591 -24.94929,77.31118 -24.94929,132.19986 0,57.40684 8.58487,102.21293 25.70634,134.44151 16.61781,32.73182 42.28512,55.8951 77.03154,69.49155 34.2431,13.59629 77.81097,20.40785 130.68605,20.40785 z" />
      <glyph
         glyph-name=""
         unicode="9"
         id="glyph45"
         d="m 288.36989,814.88101 c -4.04332,0 -7.07447,-1.01054 -9.09583,-3.03174 C 277.75991,810.32944 277,807.80491 277,804.26938 V 264.52141 c 0,-8.08572 3.5367,-12.12785 10.61177,-12.12785 h 111.42477 c 68.22587,0 124.84048,10.60982 169.81911,31.83572 44.9786,21.22534 78.32355,53.05508 100.05487,95.50676 21.7312,42.45138 32.59357,95.27749 32.59357,158.44938 0,59.63413 -10.10455,109.65224 -30.31964,150.0821 -19.70967,40.43048 -51.28628,71.27851 -94.74894,92.50412 -42.9571,21.22846 -99.57158,32.344 -169.81911,33.35169 H 383.11866 346.7351 c -13.13987,0.51333 -25.26519,0.75812 -36.38357,0.75812 z m 68.97727,-55.33334 h 34.10951 c 53.06478,0 96.79596,-6.82069 131.1616,-20.4657 34.87121,-13.64528 60.63765,-36.88614 77.31512,-69.73525 17.18291,-32.34414 25.77166,-77.33886 25.77166,-134.95162 0,-55.08539 -8.33619,-99.29317 -25.01368,-132.64829 -16.17207,-33.35467 -41.68609,-57.60621 -76.55714,-72.76714 -34.87092,-14.65598 -80.3706,-22.01091 -136.46742,-22.01091 h -28.8037 c -6.06453,0 -9.09581,2.77903 -9.09581,8.33785 v 68.39408 h 21.89416 c 35.4241,0 64.80665,5.50911 88.16018,16.53002 23.35356,11.02061 40.69751,27.57762 51.98068,49.61928 11.28331,22.04135 16.90914,49.44226 16.90914,82.24209 0,30.96297 -5.2473,56.93539 -15.74292,77.92727 -10.23354,20.992 -26.64471,37.02436 -49.2112,48.04495 -22.30389,11.0221 -51.6866,16.79258 -88.16018,17.31725 H 363.41109 349.7673 v 73.55421 c 0,7.07506 2.52616,10.61191 7.57986,10.61191 z m -7.31762,-112.50336 h 17.69624 c 27.5521,0 50.25932,-3.55641 68.10257,-10.64102 18.10565,-7.08477 31.48527,-19.15292 40.14432,-36.20864 8.92164,-16.79359 13.38155,-40.14253 13.38155,-70.05586 0,-28.6013 -4.34349,-51.57124 -13.00256,-68.88966 -8.39681,-17.31829 -21.63056,-29.91111 -39.73608,-37.78308 -18.10565,-7.60928 -41.71669,-11.4281 -70.84309,-11.4281 h -14.95572 c -0.40003,0 -0.70155,0.1044 -1.04933,0.14925 v 234.83143 c 0.0894,0.005 0.16878,0.0299 0.26569,0.0299 z" />
      <glyph
         glyph-name=""
         unicode=":"
         id="glyph46" />
      <glyph
         glyph-name=""
         unicode=";"
         id="glyph47" />
      <glyph
         glyph-name=""
         unicode="&lt;"
         id="glyph48" />
      <glyph
         glyph-name=""
         unicode="="
         id="glyph49" />
      <glyph
         glyph-name=""
         unicode="&gt;"
         id="glyph50" />
      <glyph
         glyph-name=""
         unicode="?"
         id="glyph51" />
      <glyph
         glyph-name=""
         unicode="@"
         id="glyph52" />
      <glyph
         glyph-name=""
         unicode="A"
         id="glyph53" />
      <glyph
         glyph-name=""
         unicode="B"
         id="glyph54" />
      <glyph
         glyph-name=""
         unicode="C"
         id="glyph55"
         d="m 508.27857,812.54544 c 24.4996,0 48.01935,-4.16681 70.55887,-12.49549 23.02974,-7.83966 43.6096,-18.61921 61.7392,-32.33945 18.12977,-13.72003 33.07455,-29.64424 44.83432,-47.77384 11.75997,-18.12957 19.10981,-37.48469 22.04972,-58.06475 0.98043,-4.4123 0.98043,-7.3514 0,-8.8195 -0.49021,-1.46669 -2.20616,-2.2026 -5.14448,-2.2026 l -55.12428,-4.41229 c -2.45026,-0.52172 -4.16463,-0.006 -5.14466,1.47259 -0.98043,1.4667 -1.71475,3.43031 -2.20476,5.87821 -6.85963,31.35962 -21.80461,56.59453 -44.83435,75.70395 -22.53952,19.60001 -50.71434,29.39954 -84.52381,29.39954 -50.95925,0 -90.15869,-18.86472 -117.59838,-56.59432 -27.43949,-37.7296 -41.15934,-94.56865 -41.15934,-170.51728 0,-73.49935 13.47475,-129.11364 40.42442,-166.84326 26.94966,-37.72882 67.61917,-56.59351 122.00831,-56.59351 34.78951,0 63.69904,8.33006 86.72878,24.9894 23.51977,16.65913 42.38447,43.36448 56.59432,80.11406 1.46867,2.93911 4.40936,3.9213 8.81968,2.93911 l 43.3645,-10.28993 c 1.47064,-0.5217 2.69518,-1.4726 3.67501,-2.93911 0.98043,-1.46669 0.98043,-3.9215 0,-7.3516 -3.91971,-14.20986 -10.04481,-28.17402 -18.37469,-41.89425 -7.83984,-13.72024 -17.63976,-26.70436 -29.39953,-38.95435 -11.7598,-11.76018 -25.47962,-22.53973 -41.15952,-32.34004 -15.67972,-9.3093 -33.07437,-16.65934 -52.18418,-22.04952 -18.61981,-5.38721 -38.95437,-8.08455 -61.00407,-8.08455 -48.50935,0 -90.40381,11.26997 -125.68333,33.80908 -34.78953,22.53973 -61.49407,54.87918 -80.11388,97.01892 -18.12978,42.14035 -27.19457,92.11895 -27.19457,149.93822 0,57.81906 9.06479,107.55355 27.19457,149.20309 18.61981,42.13974 45.07926,74.23428 79.37894,96.28379 34.78953,22.53971 75.94886,33.80968 123.47818,33.80968 z" />
      <glyph
         glyph-name=""
         unicode="D"
         id="glyph56"
         d="m 308.56554,813.09142 h 21.90913 c 11.08044,0 23.16844,-0.22867 36.26361,-0.76494 h 36.26363 23.42017 c 70.00881,-1.00171 126.41897,-12.08518 169.23006,-33.24151 43.31479,-21.15392 74.7937,-51.87761 94.43635,-92.17009 20.14655,-40.29329 30.21982,-90.15555 30.21982,-149.58741 0,-62.95783 -10.82889,-115.59026 -32.48608,-157.89747 -21.6576,-42.30782 -54.89911,-74.03787 -99.72494,-95.19199 C 543.27146,263.08411 486.8613,252.50715 418.86723,252.50715 H 307.80992 c -7.05097,0 -10.57696,4.03069 -10.57696,12.08841 v 537.90959 c 0,3.52598 0.75685,6.04218 2.26627,7.55668 2.01554,2.01149 5.03643,3.02109 9.0659,3.02109 z m 68.74971,-55.15106 c -5.03665,0 -7.55527,-3.52578 -7.55527,-10.57695 V 315.22277 c 0,-5.53749 3.0219,-8.31069 9.06611,-8.31069 h 28.70855 c 55.90629,0 101.23579,7.30413 135.98855,21.90953 34.75256,15.1093 60.18728,39.28532 76.30455,72.52663 16.62076,33.24151 24.93124,77.31232 24.93124,132.21102 0,57.41733 -8.56222,102.24315 -25.68666,134.4781 -16.62095,32.73742 -42.30761,55.90587 -77.06018,69.50472 -34.24887,13.59886 -77.81559,20.39828 -130.69996,20.39828 h -33.99713 z" />
      <glyph
         glyph-name=""
         unicode="E"
         id="glyph57" />
      <glyph
         glyph-name=""
         unicode="F"
         id="glyph58" />
      <glyph
         glyph-name=""
         unicode="G"
         id="glyph59" />
      <glyph
         glyph-name=""
         unicode="H"
         id="glyph60" />
      <glyph
         glyph-name=""
         unicode="I"
         id="glyph61"
         d="m 522.31292,812.33659 c 6.02971,0 9.04476,-3.26599 9.04476,-9.79842 V 265.88282 c 0,-5.02852 -1.00541,-8.54307 -3.01484,-10.55229 -2.00884,-1.5041 -5.52741,-2.25856 -10.55209,-2.25856 h -47.48499 c -4.52279,0 -7.53744,0.76315 -9.04476,2.25856 -1.50714,1.50329 -2.261,4.26557 -2.261,8.2907 v 538.16308 c 0,7.03533 3.01486,10.55228 9.04476,10.55228 z" />
      <glyph
         glyph-name=""
         unicode="J"
         id="glyph62" />
      <glyph
         glyph-name=""
         unicode="K"
         id="glyph63" />
      <glyph
         glyph-name=""
         unicode="L"
         id="glyph64"
         d="m 296.96728,801.52282 c 0,7.03395 3.01425,10.55023 9.04299,10.55023 h 54.25789 c 6.02853,0 9.043,-3.26517 9.043,-9.7965 V 316.21677 c 0,-5.02753 2.51224,-7.53757 7.53595,-7.53757 h 260.73908 c 6.02852,0 9.04299,-2.51001 9.04299,-7.53757 v -39.93969 c 0,-2.50985 -0.75493,-4.52391 -2.26055,-6.02691 -1.50581,-1.5038 -3.76797,-2.25814 -6.78222,-2.25814 H 307.5179 c -4.01909,0 -6.78223,0.76302 -8.28946,2.25814 -1.50584,2.0064 -2.26035,4.76816 -2.26035,8.28907 v 538.05713 z" />
      <glyph
         glyph-name=""
         unicode="M"
         id="glyph65" />
      <glyph
         glyph-name=""
         unicode="N"
         id="glyph66" />
      <glyph
         glyph-name=""
         unicode="O"
         id="glyph67" />
      <glyph
         glyph-name=""
         unicode="P"
         id="glyph68" />
      <glyph
         glyph-name=""
         unicode="Q"
         id="glyph69" />
      <glyph
         glyph-name=""
         unicode="R"
         id="glyph70" />
      <glyph
         glyph-name=""
         unicode="S"
         id="glyph71" />
      <glyph
         glyph-name=""
         unicode="T"
         id="glyph72" />
      <glyph
         glyph-name=""
         unicode="U"
         id="glyph73" />
      <glyph
         glyph-name=""
         unicode="V"
         id="glyph74"
         d="m 722.37754,812.41261 c 3.51686,0 6.02956,-1.25977 7.53724,-3.76943 1.5081,-2.00675 1.5081,-4.52489 0,-7.53885 L 539.22604,264.46298 c -2.51249,-7.53886 -8.03953,-11.30586 -16.58156,-11.30586 h -51.2522 c -10.04951,0 -16.07927,3.51747 -18.08905,10.55202 L 266.38311,801.10433 c -1.0054,3.01396 -0.75505,5.5321 0.75505,7.53885 1.50608,2.51045 4.01957,3.76943 7.53725,3.76943 h 52.00584 c 6.53244,0 10.80315,-3.01396 12.81315,-9.04432 L 496.26615,346.6198 c 4.01956,-9.54703 7.78819,-9.29285 11.30566,0.76314 L 666.6045,804.13142 c 1.50809,5.52442 5.27571,8.29108 11.30565,8.29108 h 44.46901 z" />
      <glyph
         glyph-name=""
         unicode="W"
         id="glyph75" />
      <glyph
         glyph-name=""
         unicode="X"
         id="glyph76"
         d="m 719.69109,269.10333 c 4.5159,-6.01919 5.77001,-10.28591 3.76314,-12.79494 -1.50388,-2.00386 -4.5153,-3.00959 -9.03139,-3.00959 H 657.2241 c -5.51942,0 -9.53315,2.00384 -12.04178,6.01917 L 502.18516,474.56585 c -3.0102,5.0211 -5.77001,7.52772 -8.27864,7.52772 -2.00586,0 -5.01727,-3.00959 -9.03141,-9.03179 L 344.13602,259.31959 c -1.00393,-2.00384 -2.75961,-3.51257 -5.26786,-4.51832 -2.50902,-1.00595 -5.01724,-1.50791 -7.52629,-1.50791 h -49.67264 c -4.01392,0 -6.77356,1.00595 -8.27884,3.00957 -1.5039,2.50662 1.9e-4,6.77356 4.51589,12.79496 l 172.34897,259.65227 c 2.50905,3.51257 3.51257,6.52217 3.0104,9.03119 0,3.0096 -1.2539,6.27058 -3.76314,9.78395 L 281.66923,800.44385 c -1.5039,2.00384 -2.00787,4.26694 -1.50592,6.77354 0.50198,3.00979 2.50985,4.51832 6.02079,4.51832 h 60.9619 c 4.01373,0 6.77354,-0.53422 8.27865,-1.50793 2.00787,-0.99789 3.51257,-2.7582 4.51609,-5.26502 L 491.64847,604.01412 c 2.50902,-3.51257 4.76646,-5.26502 6.77353,-5.26502 2.50905,0 5.01727,1.75185 7.5263,5.26502 l 131.70773,200.94864 c 1.50387,2.50682 3.01039,4.26674 4.51589,5.26502 2.00787,1.00595 4.5159,1.50793 7.5263,1.50793 h 54.9413 c 3.51175,0 5.26803,-1.25795 5.26803,-3.76396 0.50198,-2.00384 10e-4,-4.01533 -1.50589,-6.01917 L 541.32092,552.83697 c -2.00787,-3.00959 -3.0104,-5.77544 -3.0104,-8.27903 0,-2.00384 1.00394,-4.76971 3.0104,-8.27905 L 719.69089,269.1009 Z" />
      <glyph
         glyph-name=""
         unicode="Y"
         id="glyph77" />
      <glyph
         glyph-name=""
         unicode="Z"
         id="glyph78" />
      <glyph
         glyph-name=""
         unicode="["
         id="glyph79" />
      <glyph
         glyph-name=""
         unicode="\"
         id="glyph80" />
      <glyph
         glyph-name=""
         unicode="]"
         id="glyph81" />
      <glyph
         glyph-name=""
         unicode="^"
         id="glyph82" />
      <glyph
         glyph-name=""
         unicode="_"
         id="glyph83" />
      <glyph
         glyph-name=""
         unicode="`"
         id="glyph84" />
      <glyph
         glyph-name=""
         unicode="a"
         id="glyph85"
         d="m 390.68832,317.6139 c 25.56706,-24.87641 53.5525,-43.8787 83.95653,-57.00776 29.71294,-13.12907 63.22645,-19.69263 100.5404,-19.69263 53.89798,0 96.39451,13.81955 127.48947,41.45983 30.40401,27.63925 45.60603,63.91756 45.60603,108.83281 0,36.62241 -10.36518,68.06238 -31.09496,94.32065 -20.73007,26.94877 -51.47939,48.02446 -92.24845,63.22705 -40.76892,15.89311 -90.86646,25.56676 -150.29249,29.02216 l -80.84702,6.22259 c -4.1462,0.73494 -7.94648,2.07744 -11.40144,4.145 -3.45556,2.06696 -5.18275,5.86559 -5.18275,11.40173 v 27.98546 c 0,37.3141 11.74706,66.68156 35.24116,88.10242 22.80286,22.11134 53.89781,33.16805 93.28486,33.16805 30.40401,0 58.04402,-6.91501 82.91997,-20.73037 24.18503,-13.81969 45.95149,-34.55007 65.29955,-62.18931 2.76359,-3.45227 5.1826,-5.87622 7.25495,-7.26137 1.38158,-0.73494 4.14619,-0.31434 8.2918,1.04927 l 55.97106,18.65697 c 2.07219,1.38455 3.80056,3.11652 5.18257,5.18363 0.69305,2.06711 -0.34724,5.86575 -3.10904,11.40099 -20.7302,35.93194 -49.75223,64.26271 -87.06616,84.99307 C 602.47932,800.63482 556.18237,811 501.59331,811 c -46.29696,0 -84.64746,-7.25074 -115.05149,-21.76722 -31.09495,-13.81954 -54.24343,-34.20474 -69.44544,-61.1535 -15.89309,-26.25829 -23.83941,-57.69825 -23.83941,-94.32066 V 266.83695 c 0,-6.22244 1.0388,-10.36727 3.1092,-12.43754 2.07218,-2.06726 5.52774,-3.10591 10.36518,-3.10591 h 52.86158 c 4.83637,0 8.29177,1.38607 10.36518,4.14515 2.07279,3.45197 3.45435,7.59712 4.1462,12.43768 l 1.03877,47.67915 c 2.07221,9.67485 7.25495,10.36743 15.54733,2.07742 z M 377.2138,514.54896 c 0,11.74615 4.83697,17.27511 14.51092,16.58463 l 68.40921,-6.22244 c 31.78589,-1.38455 60.11679,-5.53002 84.99291,-12.43768 24.87597,-6.22244 45.95135,-14.51124 63.22647,-24.87627 17.27496,-10.36743 30.40387,-22.80406 39.38704,-37.31409 8.98332,-13.82075 13.47452,-30.059 13.47452,-48.71596 0,-30.40419 -10.36534,-54.24375 -31.0951,-71.5178 -21.421,-16.58448 -50.09755,-24.87627 -86.02948,-24.87627 -22.11193,0 -43.18762,3.79877 -63.22645,11.40083 -20.73007,8.28969 -38.69596,18.65711 -53.89798,31.0957 -15.89308,13.12921 -27.9856,26.6036 -36.27754,40.42315 -8.9833,13.81969 -13.47452,27.29496 -13.47452,40.42418 v 86.02887 z" />
      <glyph
         glyph-name=""
         unicode="b"
         id="glyph86"
         d="m 496.01802,819.74295 c -17.60028,-0.0226 -34.7613,-1.57192 -51.295,-4.59926 C 345.52103,796.9796 267.87959,725.75312 242.12112,615.38336 a 2.8347153,2.8347153 0 0 1 0,-0.20521 c -9.46224,-67.53846 -6.9681,-129.9895 1.31858,-180.9239 8.28629,-50.93435 22.26475,-90.29355 35.88595,-112.25711 a 2.8347153,2.8347153 0 0 1 0.11905,-0.11904 c 45.37477,-64.47806 108.18408,-83.19132 173.92244,-79.27141 65.73841,3.92002 134.63058,30.08777 193.7549,54.81031 a 2.8347153,2.8347153 0 0 1 1.67005,2.07991 c 0,0 0.92062,4.64733 1.66948,10.51676 0.74943,5.86966 1.32595,12.88283 0.64455,18.07483 -0.60486,4.61049 -2.6689,10.35056 -4.62863,15.14534 -1.95972,4.79472 -3.77886,8.52472 -3.77886,8.52472 a 2.8347153,2.8347153 0 0 1 -3.74996,1.34749 c -60.50973,-29.00151 -124.58926,-51.51166 -192.78819,-40.98322 -49.0152,9.27613 -78.27284,28.5908 -97.31687,56.59731 -19.06966,28.0441 -27.95261,65.16665 -35.21221,109.7085 -1.44386,8.71673 -10.26365,68.30732 6.7671,128.89656 16.78862,59.72784 59.2276,119.54434 158.5427,134.72617 l -2.54872,-358.27376 a 2.8347153,2.8347153 0 0 1 2.78284,-2.9002 c 81.38357,-1.56063 151.29727,20.90071 198.96941,61.46019 47.64498,40.5364 72.92891,99.30253 65.09273,169.29392 -5.07086,57.90967 -26.56294,103.00429 -60.23163,136.39808 -33.66891,33.39375 -79.4625,55.0736 -132.8806,66.99691 a 2.8347153,2.8347153 0 0 1 -0.0907,0.11734 c -18.35708,3.11776 -36.41627,4.62174 -54.01651,4.5991 z m 42.94595,-77.89451 c 2.79022,-0.13039 33.47102,-1.23808 67.202,-20.27192 35.22916,-19.87921 70.65638,-57.99522 71.62542,-133.20284 0.7857,-60.99859 -34.14113,-95.05726 -69.63338,-114.48353 C 574.27,455.34186 543.06455,451.68606 540.04792,451.30392 Z" />
      <glyph
         glyph-name=""
         unicode="c"
         id="glyph87"
         d="m 675.62632,251.04457 c -4.87517,0 -8.70013,1.05769 -11.48596,3.12906 -2.09518,2.78015 -3.13131,6.61799 -3.13131,11.48643 v 43.85952 c 0,5.57107 -1.3933,8.70058 -4.17316,9.39843 -2.09516,0.74009 -5.22078,-1.0577 -9.39901,-5.22246 -7.65383,-6.96691 -18.79674,-16.3622 -33.41642,-28.195 -13.92424,-11.83535 -31.67689,-22.27726 -53.25885,-31.32781 -21.58135,-9.04968 -47.3399,-13.57547 -77.27622,-13.57547 -43.85952,0 -83.19367,10.44505 -118.00278,31.32781 -34.80912,20.88456 -62.65638,51.86452 -83.54185,92.93939 -20.18926,41.77047 -30.2839,93.2886 -30.2839,154.5514 0,59.17614 10.09508,110.69278 30.2839,154.5526 20.88547,44.55526 49.77712,79.01515 86.67467,103.38249 37.59389,25.06249 80.06117,37.59344 127.40136,37.59344 34.11275,0 62.65594,-5.57136 85.63044,-16.70889 22.97375,-11.13825 43.16406,-24.01812 60.56839,-38.63811 6.26937,-4.87352 10.44536,-6.95627 12.5308,-6.26906 2.78028,1.39478 4.02032,5.92179 4.17883,13.57532 l 0.68016,32.41772 c 0.16929,9.04759 3.82767,13.57518 11.48658,13.57518 h 63.7009 c 7.65443,0 11.49798,-4.5249 11.48674,-13.57518 L 745.59946,267.744 c -0.007,-6.26922 -1.0592,-10.79082 -3.13132,-13.57546 -2.09502,-2.0826 -6.61753,-3.12951 -13.57546,-3.12951 h -53.2584 z m -17.75203,431.28306 c -21.58152,21.58151 -43.51225,38.28934 -65.79026,50.12467 -22.2774,11.83491 -47.33989,17.75207 -75.18688,17.75207 -33.41686,0 -63.7009,-8.70075 -90.85185,-26.10597 -26.45502,-16.70903 -47.34049,-42.11939 -62.65651,-76.23184 -14.61985,-34.11217 -21.9297,-75.88295 -21.9297,-125.31189 0,-50.82104 7.65832,-92.59151 22.97405,-125.31247 15.31589,-32.02341 35.85333,-55.69368 61.61216,-71.01032 25.75871,-14.61997 53.9537,-21.92937 84.58593,-21.92937 28.54333,0 53.60583,6.61799 75.18794,19.84139 22.2768,13.2276 39.68292,29.5874 52.21372,49.08108 13.22774,19.49247 19.8414,38.63692 19.8414,57.43377 z" />
      <glyph
         glyph-name=""
         unicode="d"
         id="glyph88"
         d="m 702.92699,812.16316 c -37.50635,0 -65.48793,-7.90578 -83.94263,-23.68517 -15.57388,-13.31548 -24.53024,-31.78122 -26.96668,-55.31167 -2.15074,-0.81249 -3.9063,-1.47714 -4.57809,-1.83902 -1.85143,-0.6542 -5.58282,1.3218 -11.15607,5.96306 -15.46725,13.92231 -33.4128,26.20259 -53.83003,36.80948 -20.4174,10.60627 -45.77298,15.91083 -76.08945,15.91083 -42.07205,0 -79.81381,-11.93972 -113.22481,-35.80637 -32.79116,-23.20455 -58.46457,-56.01736 -77.0259,-98.44653 -17.94137,-41.76707 -26.91473,-90.82963 -26.91473,-147.18216 0,-58.33956 8.97277,-107.40482 26.91473,-147.18215 18.56133,-39.11508 43.30888,-68.61069 74.24397,-88.49891 30.93572,-19.88628 65.89793,-29.81523 104.87651,-29.81523 26.60494,0 49.49868,4.2834 68.67805,12.90145 19.18056,8.61864 34.95386,18.57254 47.32869,29.84315 12.99254,11.26824 22.89552,20.22726 29.69782,26.86185 3.71436,3.96618 6.48553,5.66451 8.34726,4.95969 2.47246,-0.66462 3.72003,-3.63938 3.72003,-8.94467 V 297.8615 c -0.16877,-2.50248 -0.39579,-6.57619 -0.39579,-6.57619 0,0 0.11955,-0.69302 0.39579,-1.75553 v -22.59846 c 0,-4.63619 0.92005,-8.30334 2.78298,-10.95085 2.47813,-1.973 5.86062,-2.95413 10.19316,-2.95413 l 0.0299,-0.0299 h 47.32867 c 6.18353,0 10.20452,0.99772 12.06625,2.98117 1.84591,2.65199 2.77163,6.95915 2.78297,12.92925 l 0.56457,472.56012 c 1.84591,4.7373 4.29597,8.94482 7.41139,12.59496 8.33427,9.56632 21.72188,14.35036 40.17702,14.35036 H 778.858 c 3.5677,0 5.96621,0.45853 7.15046,1.42189 1.77825,1.43083 2.70397,3.35126 2.70397,5.74009 v 28.00506 c 0,5.73919 -3.88372,8.58235 -11.62415,8.58235 z m -237.9943,-83.81748 c 24.74815,0 47.00756,-5.61583 66.80616,-16.88614 19.79876,-11.27047 39.30492,-27.18074 58.4843,-47.73239 v -239.6656 c 0,-17.90014 -5.90124,-36.13633 -17.65697,-54.69871 -11.13635,-18.56357 -26.59466,-34.13299 -46.39267,-46.72943 -19.17995,-12.59245 -41.46476,-18.89233 -66.83154,-18.89233 -27.2236,0 -52.26135,6.9484 -75.15343,20.87069 -22.89268,14.5859 -41.15487,37.13252 -54.7665,67.62809 -13.6118,31.15958 -20.41351,70.92108 -20.41351,119.31722 0,47.07029 6.48447,86.86077 19.47749,119.34516 13.6118,32.48483 32.19119,56.67632 55.70252,72.58806 24.12891,16.57473 51.04587,24.85538 80.74415,24.85538 z" />
      <glyph
         glyph-name=""
         unicode="e"
         id="glyph89"
         d="m 489.37923,814.83643 c 49.8112,0 94.16922,-12.27525 133.06262,-36.83969 38.21082,-23.88305 68.56493,-56.96975 91.08234,-99.27464 21.83452,-42.30519 32.77025,-91.46035 32.77025,-147.41266 0,-55.26956 -10.93573,-104.03691 -32.77025,-146.34165 C 691.68863,343.3446 661.6704,310.592 623.459,286.71044 584.56618,263.51147 539.87331,251.90546 489.37923,251.90546 c -27.29318,0 -52.17912,3.39858 -74.69654,10.22703 -22.51681,7.50614 -42.65916,17.38275 -60.39976,29.66468 -18.42363,12.28148 -34.43839,26.62069 -48.0852,42.99759 -13.64638,16.37585 -25.58633,33.44869 -35.82167,51.19002 -2.04111,6.82949 -0.72398,11.23823 4.07078,13.27949 l 44.01501,16.38519 c 3.40911,1.34709 6.14497,1.74276 8.19661,1.01477 1.36785,0 3.10082,-1.67778 5.14178,-5.08629 19.78837,-31.38786 41.60493,-55.26942 65.48664,-71.64498 23.8823,-16.37882 52.22616,-24.57765 84.97742,-24.57765 35.48238,0 66.50662,8.53605 93.1178,25.59509 25.92949,17.0583 46.40535,41.94468 61.4175,74.69698 9.88492,22.58745 16.26266,48.35314 19.32981,77.10647 H 420.15145 c -4.77741,0 -7.84396,0.66315 -9.21151,2.03501 -1.36787,2.04437 -2.02983,4.44732 -2.02983,7.17561 v 54.24189 c 0,7.50616 3.73994,11.24476 11.24476,11.24476 h 236.62048 c -2.76435,30.87454 -9.3983,58.44145 -19.97234,82.6218 -14.32986,32.7526 -34.47206,57.63824 -60.40036,74.69684 -26.61134,17.74118 -57.29954,26.61252 -92.10021,26.61252 -17.74015,0 -34.14286,-3.39872 -49.15501,-10.22718 -15.01112,-6.1414 -28.96132,-15.34787 -41.92629,-27.6298 -13.64741,-12.28178 -27.31663,-28.35039 -40.96359,-48.13802 -4.09319,-6.14141 -8.55875,-8.19928 -13.33216,-6.15803 l -56.2775,13.33304 c -7.50184,2.04748 -9.18007,7.18169 -5.0857,15.36776 12.96498,23.20001 29.31338,44.34735 49.1019,63.45223 19.10593,19.78792 42.31647,35.13285 69.61011,46.04959 26.61134,11.598 57.63497,17.40264 93.11675,17.40264 z" />
      <glyph
         glyph-name=""
         unicode="f"
         id="glyph90"
         d="m 504.82,811.77143 c -42.93551,0 -74.97935,-8.3006 -96.10513,-24.88451 C 387.58747,770.30287 377,746.18089 377,714.52071 v -55.0141 c 0,-0.11922 0.22507,-0.23698 0.22507,-0.35921 l 1.27288,-361.21054 c 2.34919,-10.17938 0,-33.59843 0,-33.59843 0,0 2.30403,-11.90091 9.80034,-11.90091 h 62.35885 c 8.17583,0 13.38827,3.58271 12.24819,10.569 l 1.02546,28.31549 v 441.4937 c 2.21399,6.9225 5.57716,12.90804 10.2156,17.90421 9.54129,10.05431 24.86588,15.06479 45.99223,15.06479 h 71.55925 c 4.08414,0 6.8192,0.4874 8.17571,1.49899 2.0393,1.50347 3.10396,3.52265 3.10396,6.03341 v 29.41995 c 0,6.03191 -4.46166,9.03095 -13.31613,9.03095 z" />
      <glyph
         glyph-name=""
         unicode="g"
         id="glyph91"
         d="m 443.55336,812.1121 c -47.01147,0 -89.21531,-12.4217 -126.54824,-37.30977 -36.64074,-24.19767 -65.31627,-58.44859 -86.05652,-102.69357 -20.04849,-43.55475 -30.09216,-94.69507 -30.09216,-153.45935 0,-60.83632 10.04816,-111.97947 30.09216,-153.45934 20.74025,-40.78887 48.37117,-71.55648 82.93731,-92.29582 34.5666,-20.73695 73.63542,-31.13216 117.18942,-31.13216 29.72793,0 55.32939,4.53135 76.7609,13.51712 21.43076,8.98815 39.07838,19.31791 52.90639,31.07104 14.51705,11.75059 25.54962,21.09357 33.15117,28.01295 4.1559,4.14455 7.27854,5.93228 9.36164,5.19828 2.76111,-0.70069 4.15591,-3.82677 4.15591,-9.35747 v -43.54846 c 0,-4.83405 0.94273,-8.61525 3.05482,-11.37664 2.76692,-2.06549 6.59415,-3.11862 11.43342,-3.11862 h 52.90593 c 6.90878,0 11.37468,1.05328 13.4566,3.11862 2.07235,2.76571 3.10562,7.23088 3.12265,13.45599 l 0.39591,218.96552 h 68.86861 c 2.01587,0 3.28637,0.72311 3.85665,2.14108 0.63196,2.11987 0.94272,4.57213 0.94272,7.4009 v 56.27048 c 0,7.78442 -1.62056,11.68201 -4.76575,11.68201 h -68.80871 l 0.39591,231.44278 c 0.0121,8.98726 -3.83408,13.45602 -11.43324,13.45602 h -63.24231 c -7.60946,0 -11.19675,-4.4713 -11.37468,-13.45602 l -0.70518,-32.23325 c -0.16881,-7.6002 -1.3999,-12.07044 -4.1559,-13.456 -2.07235,-0.68276 -6.24813,1.3999 -12.47698,6.23872 -17.29294,14.51825 -37.31992,27.28879 -60.13369,38.3496 -22.81662,11.06005 -51.14315,16.57536 -85.01923,16.57536 z m 20.73395,-64.28288 c 27.65348,0 52.49822,-5.86251 74.61966,-17.61518 22.12311,-11.75298 43.95201,-28.3557 65.38457,-49.78706 V 565.07252 H 540.4355 c -3.76058,0 -5.68158,-3.89759 -5.68158,-11.68201 V 497.1813 c 0,-2.82892 0.39591,-5.34274 1.06075,-7.4626 0.70667,-1.41782 2.25313,-2.14109 4.65296,-2.14109 h 63.85649 v -57.06558 c 0,-18.66608 -6.61791,-37.64756 -19.75657,-57.00448 -12.44306,-19.35782 -29.68297,-35.6118 -51.80606,-48.74733 -21.43076,-13.13211 -46.336,-19.69458 -74.68063,-19.69458 -30.41802,0 -58.39839,7.25658 -83.97669,21.77408 -25.5795,15.21013 -46.01704,38.65976 -61.22417,70.4605 -15.21103,32.49335 -22.81542,74.0004 -22.81542,124.4678 0,49.08486 7.25554,90.5931 21.77483,124.46781 15.20923,33.87502 35.99414,59.06667 62.26476,75.65937 26.96281,17.28412 57.03137,25.93328 90.21511,25.93328 z" />
      <glyph
         glyph-name=""
         unicode="h"
         id="glyph92"
         d="m 749.16785,266.54833 c 2.83076,-4.07142 3.53995,-7.80153 2.13297,-11.19828 -1.41838,-3.39061 -5.3154,-5.09132 -11.69451,-5.09132 h -74.42096 c -4.25454,0 -8.1478,1.02965 -11.6951,3.05035 -2.83076,2.03016 -5.32111,5.0913 -7.43757,9.16168 L 485.5149,526.12401 c -1.41838,2.71039 -3.19939,4.41079 -5.3154,5.091 -1.41838,1.35985 -3.89717,0.3092 -7.43756,-3.05049 L 360.06589,419.24211 c -2.83076,-2.71038 -4.95804,-5.77139 -6.38197,-9.16168 -0.74896,-2.71054 -1.07767,-6.45146 -1.07767,-11.19815 V 267.56491 c 0,-6.7914 -1.41838,-11.53825 -4.25453,-14.25163 -2.12172,-2.03032 -7.082,-3.05034 -14.88384,-3.05034 h -54.22189 c -7.09324,0 -11.69615,1.02964 -13.82056,3.05034 -1.41838,2.03016 -2.13313,5.76102 -2.13313,11.1971 v 534.48469 c 0,9.5018 3.89717,14.25135 11.69511,14.25135 h 64.85268 c 8.50232,0 12.75806,-4.41079 12.75806,-13.23312 V 520.02152 c 0,-5.43112 0.74896,-8.82172 2.13297,-10.18201 1.41838,-0.72195 4.25469,1.34933 8.50308,6.11119 l 262.60065,261.61709 c 7.79207,8.14149 15.2376,12.21607 22.32589,12.21607 h 64.85328 c 7.09265,0 10.98651,-2.04052 11.69391,-6.11119 1.41838,-3.3906 -0.74897,-7.80153 -6.38256,-13.23326 L 550.34731,606.54675 c -2.12171,-2.03016 -3.53994,-4.41079 -4.25468,-7.12117 0,-2.71038 1.07766,-6.11134 3.18812,-10.18202 L 749.15373,266.54729 Z" />
      <glyph
         glyph-name=""
         unicode="i"
         id="glyph93"
         d="m 542.12646,269.73519 c 0,-7.0392 -1.40742,-11.95904 -4.21703,-14.77149 -2.1029,-2.10409 -7.02828,-3.16168 -14.76999,-3.16168 h -53.81059 c -6.33399,0 -10.55341,1.0679 -12.662,3.16168 -2.10275,2.10456 -3.15989,5.971 -3.15989,11.60547 v 529.65672 c 0,9.8485 4.21702,14.77119 12.662,14.77119 h 64.36056 c 7.73319,0 11.60651,-4.57165 11.60651,-13.71585 z" />
      <glyph
         glyph-name=""
         unicode="j"
         id="glyph94"
         d="m 395.26341,811.53041 c -7.11859,0 -10.70367,-4.21264 -10.70367,-12.63116 v -10.35897 c -0.39039,-1.42748 -0.57306,-3.07461 -0.57306,-4.97765 V 381.48708 c 0,-2.23832 0.16643,-4.12249 0.60694,-5.63941 0.22244,-40.19601 10.22255,-70.91756 30.0959,-92.07242 20.07148,-21.36713 50.50371,-32.05269 91.29592,-32.05269 h 80.62067 c 8.4169,0 12.60229,3.91021 12.60229,11.68155 v 37.8649 c 0,3.23492 -0.97965,5.83136 -2.90639,7.76856 -1.29196,1.29785 -3.8809,1.9565 -7.76885,1.9565 h -67.98953 c -20.07149,0 -34.64205,6.46746 -43.70582,19.42153 -8.41703,12.3025 -12.60229,29.12922 -12.60229,50.49591 v 67.98981 c 0,5.83047 2.88961,8.74689 8.71816,8.74689 h 111.69534 c 3.23492,0 5.50107,0.97817 6.79053,2.90581 1.94324,1.93705 2.93424,4.20439 2.93424,6.79037 v 41.77789 c 0,6.47969 -3.24597,9.69634 -9.72535,9.69634 H 473.93127 c -5.17801,0 -7.7687,2.58745 -7.7687,7.76855 v 271.3336 c 0,9.06554 -2.64477,13.60949 -11.65297,13.60949 z" />
      <glyph
         glyph-name=""
         unicode="k"
         id="glyph95"
         d="m 316.25373,812.70916 c -6.00892,0 -8.98563,-3.88926 -8.98563,-11.65205 v -20.40572 c -0.2241,-0.62182 -0.39328,-1.29112 -0.39328,-2.05793 v -218.4921 c 0,-2.32417 0.86372,-3.91448 2.55213,-4.78266 1.69389,-0.86371 5.08733,-1.30447 10.17422,-1.30447 h 43.21695 c 6.21863,0 10.19605,0.4363 11.88431,1.30447 2.25487,1.16054 3.39343,3.18345 3.39343,6.087 v 0.20331 h 0.56098 c 0.22408,0 0.44818,0.003 0.66782,0 v 180.37612 c 0,6.6539 3.23642,10 9.73953,10 H 501.6142 c 28.01372,0 52.0484,-3.88926 72.05804,-11.6522 20.50932,-7.20894 36.27011,-19.41883 47.27495,-36.60862 11.5075,-17.18949 17.24663,-39.92325 17.24663,-68.20263 0,-42.14295 -12.01726,-72.91107 -36.02896,-92.31848 -24.01108,-19.40771 -55.75705,-29.10139 -95.2753,-29.10139 H 390.16523 v -0.55058 h -4.46478 c -2.47911,0 -3.74116,-2.63005 -3.74116,-7.91298 v -43.97086 c 0,-5.77355 1.35792,-8.66657 4.02729,-8.66657 h 88.28928 v -154.2314 c -1.91265,-6.89253 -4.83491,-12.8513 -8.84036,-17.826 -8.23457,-10.01068 -21.44828,-14.98552 -39.68105,-14.98552 h -61.76822 c -3.52241,0 -5.87255,-0.49864 -7.04317,-1.5072 -1.76128,-1.49697 -2.69801,-3.49999 -2.69801,-5.99988 v -29.30427 c 0,-6.00581 3.86462,-8.98549 11.50749,-8.98549 h 73.18815 c 37.05488,0 64.72416,8.27033 82.95635,24.78249 18.23382,16.51202 27.36194,40.53454 27.36194,72.05775 v 54.7534 c 0,0.11865 -0.1677,0.25229 -0.1677,0.37547 l -0.9869,83.10133 c 25.04711,2.71017 47.84498,8.42838 68.31898,17.27527 29.51292,12.7538 52.79043,32.42714 69.79634,59.04319 17.00829,26.61665 25.50761,60.44489 25.50761,101.47792 0,42.1422 -9.00583,76.54256 -27.01466,103.15906 -18.00898,26.61633 -42.52257,46.00386 -73.53602,58.20277 -31.01507,12.19877 -66.27781,18.31871 -105.79665,18.31871 z" />
      <glyph
         glyph-name=""
         unicode="l"
         id="glyph96"
         d="m 585.02267,800.77137 c 0,7.03507 -2.98789,10.69132 -8.96008,10.55306 l -76.62542,-1.77569 c -5.9701,-0.13424 -8.96008,-3.26622 -8.96008,-9.79909 V 313.56347 c 0,-5.02639 -2.48613,-7.60007 -7.46837,-7.53951 l -145.98846,1.77585 c -5.97159,0.0733 -8.96051,-2.51313 -8.96051,-7.53952 V 260.3103 c 0,-2.51268 0.75472,-4.52301 2.23793,-6.02857 1.48857,-1.50573 3.73201,-2.25897 6.72034,-2.25897 h 237.54735 c 3.98558,0 6.71976,0.75623 8.21355,2.25897 1.48857,2.00971 2.23808,4.77311 2.23808,8.29185 v 538.1963 z" />
      <glyph
         glyph-name=""
         unicode="m"
         id="glyph97"
         d="m 638.77951,825.37803 c -29.61647,0 -59.25722,-6.34347 -88.87235,-19.03625 -0.64592,-0.24428 -1.18996,-0.54251 -1.7674,-0.83025 -24.08394,11.60323 -51.21096,17.48689 -81.40278,17.48689 -29.61632,0 -59.19936,-6.34346 -88.81795,-19.03639 -30.32219,-12.69277 -64.91805,-35.64221 -103.70269,-68.78524 -3.52326,-2.84839 -5.94363,-3.90391 -7.35672,-3.15426 -1.35932,0.70737 -2.1638,2.84075 -2.1638,6.36385 v 62.42123 c 0,7.75943 -3.86316,11.62106 -11.62092,11.62106 h -61.31448 c -7.76345,0 -11.67575,-4.61262 -11.67575,-13.77915 l -2.09576,-532.02035 c 0,-9.87227 4.96182,-14.83063 14.83019,-14.83063 h 58.16049 c 11.28058,0 16.93344,5.30171 16.93344,15.8821 v 393.45385 c 27.502,28.20756 55.35392,50.8093 83.56163,67.73391 27.50184,16.22248 56.39205,24.29346 86.71485,24.29346 33.84816,0 60.66075,-10.55415 80.40587,-31.70878 19.03998,-21.15552 28.55495,-49.00745 28.55495,-83.56059 V 266.62917 c 0,-9.87227 4.61069,-14.83063 13.77843,-14.83063 h 59.21226 c 10.57979,0 15.88166,5.65016 15.88166,16.93344 v 392.40251 c 0,32.43849 -7.44243,61.03781 -22.24595,85.71882 -1.84099,2.97503 -3.76124,5.87573 -5.74879,8.688 0.74783,0.03 1.43874,0.06 2.1638,0.06 v -0.06 c 33.84934,0 60.66073,-10.55385 80.40644,-31.70862 19.0406,-21.15552 28.55436,-49.0076 28.55436,-83.56058 V 269.00862 c 0,-9.87226 4.6164,-14.83063 13.77902,-14.83063 h 59.21183 c 10.58022,0 15.88212,5.65016 15.88212,16.93358 v 392.40251 c 0,32.43835 -7.37787,61.03767 -22.19053,85.71869 -14.80875,23.97648 -34.93124,42.65903 -60.31799,56.05754 -25.38689,13.39312 -54.2765,20.08772 -86.71485,20.08772 z" />
      <glyph
         glyph-name=""
         unicode="n"
         id="glyph98"
         d="m 707.80887,833.011 c -43.31442,0 -75.63246,-6.90417 -96.94464,-20.66457 -21.31403,-13.76056 -31.9817,-33.77674 -31.9817,-60.04679 v -9.0389 c -0.34133,-1.57088 -0.6195,-3.27181 -0.6195,-5.23184 V 425.96665 c 0,-34.58043 -9.61527,-62.44526 -28.86895,-83.61761 -19.96823,-21.17175 -47.06122,-31.7671 -81.29118,-31.7671 -30.66491,0 -59.91235,8.12031 -87.72275,24.35574 -28.52568,16.93791 -56.68204,39.51872 -84.49289,67.74864 v 393.7907 c 0,10.58842 -5.71372,15.86895 -17.1215,15.86895 h -58.8246 c -9.98532,0 -14.97792,-4.91409 -14.97792,-14.79371 l 2.14256,-532.4849 c 0,-9.17379 3.90424,-13.77649 11.74701,-13.77649 h 62.05491 c 7.84155,0 11.7476,3.88906 11.7476,11.65484 v 62.45895 c 0,3.52577 0.73227,5.6581 2.14256,6.36496 1.43148,0.75182 3.92121,-0.34133 7.48909,-3.19662 39.22191,-33.16957 74.18037,-56.09202 104.84471,-68.79504 29.95174,-12.70286 59.88739,-19.06605 89.83747,-19.06605 32.80344,0 62.05027,6.70885 87.72261,20.11245 25.67338,13.40913 45.99393,32.12737 60.96897,56.12286 14.9761,24.70081 22.46641,53.2752 22.46641,85.7394 v 333.22092 c -1.72199,6.83292 3.62004,31.64262 17.65333,48.20643 9.62551,8.34255 16.15767,10.73563 37.47049,10.73563 h 72.21628 c 4.12033,0 6.85503,0.40899 8.22349,1.24952 2.05731,1.24803 3.14281,2.91545 3.14281,4.99893 v 24.41393 c 0,5.00506 -4.48978,7.49857 -13.42134,7.49857 z" />
      <glyph
         glyph-name=""
         unicode="o"
         id="glyph99"
         d="m 500.34954,249.09882 c -51.1465,0 -96.4969,11.59341 -136.04999,34.77903 -38.87063,23.86792 -69.21742,56.60167 -91.04037,98.20078 -21.14033,42.28068 -31.71066,90.69914 -31.71066,145.25433 0,56.60167 10.91095,106.04337 32.73375,148.3242 22.50435,42.96299 53.19192,76.37784 92.06361,100.24607 38.87062,23.86897 83.87919,35.80301 135.02569,35.80301 51.8279,0 96.83752,-12.27482 135.0269,-36.8252 38.87062,-23.86913 68.87664,-57.28399 90.01817,-100.24697 21.82175,-42.28098 32.7327,-91.04006 32.7327,-146.27787 0,-54.55534 -10.91095,-102.9738 -32.7327,-145.25433 C 704.59369,341.50276 674.2469,308.76886 635.37523,284.90109 597.186,261.03286 552.17744,249.09882 500.34954,249.09882 Z m 2.05039,64.4441 c 35.46148,0 65.80828,8.52294 91.04022,25.57272 25.23209,17.73 44.3273,42.62131 57.28443,74.67335 13.63974,32.73375 20.45908,71.60422 20.45908,116.61354 0,45.00826 -6.82446,83.53826 -20.45908,115.5903 -13.63958,32.73375 -33.07437,57.96554 -58.30647,75.69583 -25.23194,17.72984 -55.57978,26.59552 -91.04142,26.59552 -34.77902,0 -65.12581,-8.86462 -91.04036,-26.59552 -25.91336,-17.73029 -46.03165,-42.96208 -60.35281,-75.69583 -13.63868,-32.05204 -20.45787,-70.58204 -20.45787,-115.5903 0,-44.32686 6.81407,-82.85655 20.45787,-115.5903 14.32116,-32.7336 34.43945,-57.96659 60.35281,-75.69659 25.91455,-17.04872 56.60212,-25.57272 92.0636,-25.57272 z" />
      <glyph
         glyph-name=""
         unicode="p"
         id="glyph100"
         d="m 431.23242,826.07422 c -60.97852,0.93397 -118.60106,-19.20767 -160.96289,-79.4043 a 2.8229218,2.8229218 0 0 1 -0.11719,-0.11719 C 256.58782,724.68057 242.66587,685.4841 234.41406,634.76172 226.16186,584.03928 223.6787,521.84725 233.10156,454.58984 a 2.8229218,2.8229218 0 0 1 0,-0.20312 c 25.65128,-109.91046 102.97059,-180.8412 201.75977,-198.92969 16.46489,-3.01474 33.55498,-4.55753 51.08203,-4.58008 17.52699,-0.0225 35.51032,1.47531 53.79101,4.58008 a 2.8229218,2.8229218 0 0 1 0.0898,0.11719 c 53.1958,11.87369 98.79932,33.46201 132.32812,66.7168 33.52858,33.25483 54.93072,78.16334 59.98047,135.83203 7.80358,69.70012 -17.37555,128.22213 -64.82226,168.58984 -47.47376,40.39069 -117.09573,62.75727 -198.14063,61.20313 a 2.8229218,2.8229218 0 0 1 -2.77148,-2.88672 l 2.53906,-356.78321 c -98.90175,15.11865 -141.16596,74.68478 -157.88472,134.16407 -16.95986,60.3371 -8.17613,119.68087 -6.73828,128.36132 7.2294,44.3565 16.0761,81.32456 35.06641,109.25196 18.96479,27.88996 48.10087,47.1238 96.91211,56.36133 67.91512,10.48462 131.7284,-11.93168 191.98633,-40.8125 a 2.8229218,2.8229218 0 0 1 3.73437,1.34179 c 0,0 1.81015,3.71546 3.76172,8.49024 1.95157,4.77483 4.00702,10.49073 4.60938,15.08203 0.67856,5.17039 0.10568,12.15477 -0.64063,18 -0.74574,5.845 -1.66406,10.47265 -1.66406,10.47265 a 2.8229218,2.8229218 0 0 1 -1.66211,2.07032 c -58.87828,24.61965 -127.48437,50.67832 -192.94922,54.58203 -4.09155,0.24397 -8.17109,0.40062 -12.23633,0.46289 z M 529.78906,617.7832 c 3.00408,-0.38054 34.07918,-4.02108 67.82617,-22.49218 35.34455,-19.34543 70.12619,-53.26306 69.34375,-114.00782 -0.965,-74.89465 -36.24362,-112.85194 -71.32617,-132.64843 -33.59062,-18.95462 -64.14522,-20.05766 -66.92383,-20.1875 z" />
      <glyph
         glyph-name=""
         unicode="q"
         id="glyph101"
         d="m 707.09532,811.84542 c 6.49008,0 9.73002,-3.96517 9.73002,-11.89554 V 263.20895 c 0,-3.96859 -0.81011,-6.7912 -2.42483,-8.48856 -1.62579,-1.69454 -4.32454,-2.54101 -8.11307,-2.54101 h -55.1466 c -8.10703,0 -12.15499,4.23555 -12.15499,12.73284 v 172.19601 c 0,5.09828 -2.43604,7.65111 -7.30475,7.65111 H 497.42339 l 0.77609,-39.64202 c 0,-0.11826 0.22323,-0.25131 0.22323,-0.374 v -54.5692 c 0,-31.4005 -10.48823,-55.30037 -31.44232,-71.74825 -20.95249,-16.44803 -52.75418,-24.68601 -95.33694,-24.68601 H 287.5083 c -8.78125,-3.1e-4 -13.19391,2.96762 -13.19391,8.9502 v 29.19003 c 0,2.4903 1.03923,4.48538 3.06181,5.97668 1.3467,1.00079 4.06186,1.50133 8.11306,1.50133 h 70.9689 c 20.95307,0 36.1558,4.95518 45.61883,14.92703 4.59835,4.95534 7.93836,10.89104 10.13404,17.75661 v 122.53527 c -10.24963,2.70185 -20.11446,5.90467 -29.47903,9.73 -31.89394,13.02924 -57.03513,33.12402 -75.41527,60.31483 -18.3785,27.19126 -27.57337,61.76235 -27.57337,103.68136 0,43.0521 9.72896,78.16471 29.19032,105.35595 19.4612,27.19095 45.94111,47.01522 79.4576,59.47753 33.51634,12.46214 71.62984,18.70948 114.33543,18.70948 z m -78.64853,-62.0472 H 506.80646 c -30.27243,0 -56.21705,-3.96518 -77.84052,-11.89539 -22.16333,-7.36463 -39.21199,-19.82913 -51.10427,-37.39002 -12.43599,-17.56073 -18.6517,-40.77955 -18.6517,-69.66949 0,-43.05284 12.97231,-74.50019 38.92033,-94.32668 25.94847,-19.82664 60.28229,-29.73876 102.98849,-29.73876 h 130.56187 c 4.86635,0 7.3046,3.96517 7.3046,11.89553 v 220.93283 c 0,6.7977 -3.5143,10.19198 -10.53847,10.19198 z" />
      <glyph
         glyph-name=""
         unicode="r"
         id="glyph102"
         d="m 272.17029,812.03507 c -6.49008,0 -9.73001,-3.96531 -9.73001,-11.89553 V 263.39859 c 0,-3.96858 0.81009,-6.79105 2.42481,-8.4884 1.62581,-1.69455 4.3244,-2.54101 8.11307,-2.54101 h 55.1466 c 8.10701,0 12.15498,4.23555 12.15498,12.73268 v 172.19597 c 0,5.09842 2.43604,7.65126 7.30459,7.65126 h 134.25783 l -0.7761,-39.64201 c 0,-0.11829 -0.22321,-0.25131 -0.22321,-0.37401 v -54.56918 c 0,-31.40064 10.48835,-55.30035 31.44246,-71.74824 20.95248,-16.44802 52.75417,-24.686 95.33691,-24.686 h 84.13513 c 8.78185,0 13.19465,2.96778 13.19465,8.95035 v 29.19018 c 0,2.49016 -1.03923,4.48538 -3.0618,5.97666 -1.34672,1.0008 -4.06187,1.50118 -8.11307,1.50118 H 622.8081 c -20.95292,0 -36.15565,4.95534 -45.61868,14.92719 -4.59832,4.95518 -7.93834,10.8909 -10.13403,17.75659 v 122.53511 c 10.24963,2.70198 20.11431,5.90482 29.47902,9.73015 31.89394,13.02907 57.03511,33.124 75.41525,60.31466 18.3785,27.19124 27.57322,61.76232 27.57322,103.68148 0,43.05209 -9.72897,78.16467 -29.19016,105.35591 -19.46135,27.19095 -45.9411,47.01521 -79.45757,59.47752 -33.51635,12.46214 -71.62982,18.70934 -114.33557,18.70934 z m 78.64852,-62.04719 h 121.64014 c 30.27256,0 56.21717,-3.96516 77.84065,-11.89538 22.16318,-7.36462 39.21198,-19.82928 51.10426,-37.39001 12.43599,-17.56072 18.65169,-40.77954 18.65169,-69.66962 0,-43.05284 -12.97231,-74.50003 -38.92032,-94.32652 -25.94846,-19.82676 -60.28228,-29.73874 -102.98847,-29.73874 H 347.58493 c -4.86648,0 -7.30461,3.96517 -7.30461,11.89553 v 220.93278 c 0,6.7977 3.51431,10.19196 10.53849,10.19196 z" />
      <glyph
         glyph-name=""
         unicode="s"
         id="glyph103"
         d="m 397.87882,813.07212 c -42.89003,0 -74.89143,-8.33721 -95.99481,-24.98291 -21.10517,-16.6457 -31.69766,-40.86228 -31.69766,-72.64048 v -55.22545 c 0,-0.11911 0.22483,-0.22483 0.22483,-0.3484 l 1.2492,-354.31964 v -40.58636 c 0,-0.33204 0.0447,-0.61642 0.0596,-0.93505 -0.001,-0.0131 -0.0298,-0.43923 -0.0298,-0.43923 0,0 0.0596,-0.28142 0.11912,-0.32012 0.33798,-4.04615 1.74442,-7.0569 4.33306,-8.99979 1.39066,-1.50024 3.10634,-2.62974 5.35163,-2.62974 h 3.23022 c 0.50623,-0.0298 0.93951,-0.0893 1.45169,-0.0893 v -0.0298 h 56.99787 c 2.1104,0 3.96172,0.2695 5.64152,0.70129 0.22483,0.0447 0.44966,0.0893 0.64173,0.14889 0.50624,0.15783 1.00204,0.35436 1.48594,0.55686 0.28141,0.134 0.6194,0.25907 0.9008,0.41094 4.55818,2.305 6.89252,6.82938 6.89252,13.67485 v 210.58744 c 22.10945,18.57668 42.14647,33.71098 60.10927,45.4075 17.96324,12.38396 35.59624,21.65086 52.86849,27.84641 17.9622,6.88552 36.96144,10.34399 56.99727,10.34399 37.30866,0 64.58986,-9.63347 81.86151,-28.89848 17.27403,-18.57654 25.91097,-44.74255 25.91097,-78.45517 V 264.94415 c 0,-4.12714 1.0467,-7.56715 3.11199,-10.31465 2.07645,-2.04831 5.52047,-3.09741 10.35217,-3.09741 h 58.04518 c 10.3623,0 15.52886,5.50038 15.52886,16.50917 v 205.44471 c 0,46.09732 -14.48617,83.56991 -43.50451,112.46706 -28.32675,28.89684 -69.43959,43.36232 -123.33052,43.36232 -23.48998,0 -45.60628,-3.42944 -66.33267,-10.31466 -20.72743,-6.19258 -41.11955,-15.8259 -61.15597,-28.89833 -19.34541,-12.38396 -40.42185,-27.52004 -63.22126,-45.40765 -3.44969,-2.78221 -5.85652,-3.82832 -7.24078,-3.09741 -0.7653,0.39456 -1.31174,1.28494 -1.66014,2.57121 v 189.66603 c 2.21163,6.94819 5.54295,12.95525 10.17826,17.97009 9.53118,10.09162 24.84341,15.10675 45.94739,15.10675 h 71.47956 c 4.0798,0 6.81644,0.50623 8.17151,1.51929 2.03713,1.50933 3.11199,3.52845 3.11199,6.0486 v 29.54125 c 0,6.05426 -4.47376,9.05816 -13.31901,9.05816 z" />
      <glyph
         glyph-name=""
         unicode="t"
         id="glyph104"
         d="m 448.34169,811.74506 c 42.93524,0 74.97899,-8.30073 96.10485,-24.88459 21.12736,-16.58385 31.71465,-40.70576 31.71465,-72.36602 v -55.01393 c 0,-0.1192 -0.22512,-0.23692 -0.22512,-0.36071 L 574.6632,297.91025 c -2.34919,-10.17934 0,-33.59833 0,-33.59833 0,0 -2.30402,-11.90088 -9.80047,-11.90088 h -62.35852 c -8.17581,0 -13.38839,3.58286 -12.24816,10.56898 l -1.02546,28.31542 v 441.49248 c -2.21382,6.92246 -5.577,12.90802 -10.21556,17.9043 -9.54112,10.05415 -24.86567,15.06475 -45.99198,15.06475 H 361.464 c -4.08412,0 -6.81917,0.49038 -8.17567,1.499 -2.0396,1.50376 -3.10425,3.52265 -3.10425,6.03353 v 29.41987 c 0,6.03176 4.46164,9.03093 13.31608,9.03093 z" />
      <glyph
         glyph-name=""
         unicode="u"
         id="glyph105"
         d="m 488.01058,812.14073 c -5.8006,0.0731 -11.66583,0.0292 -17.5521,-0.10237 -1.81743,-0.0439 -3.24825,-1.72198 -3.20412,-3.77036 l 1.19272,-187.79292 c -0.76737,-1.82855 -1.13864,-4.75041 -1.13864,-8.78739 V 351.48741 c -27.67838,3.38259 -52.49174,10.41247 -74.23473,21.31326 -31.52723,16.55483 -55.45994,39.11634 -71.88012,67.71031 -16.42079,29.34598 -24.64104,63.57072 -24.64104,102.69963 0,36.11685 7.88157,67.38419 23.64886,93.72077 15.76157,26.33583 38.74594,50.39366 68.96002,72.21573 3.28143,2.25053 4.90563,4.14719 4.90563,5.65607 0.7016,2.26221 0.3318,5.28288 -0.99392,9.04288 l -15.76567,48.53793 c -1.47497,3.9655 -4.22057,5.75735 -8.27931,5.46472 -1.35351,-0.10237 -2.86164,-0.43118 -4.50792,-0.99101 -17.07824,-11.28726 -33.49009,-24.44634 -49.254,-39.49505 -15.76435,-15.0493 -29.57649,-32.69451 -41.39816,-53.01137 -11.82282,-19.56393 -21.32802,-41.79308 -28.55449,-66.62384 -6.57413,-24.8315 -9.83904,-52.27937 -9.83904,-82.37708 0,-55.68298 11.15601,-104.96096 33.4879,-147.85059 22.98862,-42.13818 54.52639,-75.2332 94.59266,-99.31252 40.72373,-24.07843 87.66831,-36.13995 140.87056,-36.13995 53.85956,0 101.16722,12.06152 141.89035,36.13995 15.37716,9.37643 29.48764,19.98592 42.33465,31.82599 0.009,0.009 0.0149,0.0292 0.0292,0.0292 0.0439,0.0584 0.11688,0.10237 0.16527,0.16081 3.54658,3.2731 6.94189,6.66723 10.29362,10.12933 -3.34779,-3.4583 -6.75143,-6.85871 -10.29362,-10.12933 6.95577,5.6318 13.71654,11.93756 20.27446,19.2681 38.96257,43.5484 63.82957,102.36813 69.69815,177.88707 9.06832,91.27467 -20.20444,167.90653 -75.34076,220.76925 -51.7194,49.58725 -128.47652,72.95548 -215.47203,74.00524 z m 214.11151,-81.67401 c 4.85039,-4.98077 9.55111,-10.20184 14.14906,-15.65736 -4.5962,5.45537 -9.30525,10.67688 -14.14906,15.65736 z m -158.44986,-4.02615 c 3.49149,-0.50282 39.6123,-5.27253 78.82715,-29.46147 41.07291,-25.33342 81.49599,-69.74114 80.58727,-149.28844 C 701.96554,449.6137 660.97142,399.91359 620.20296,373.9895 581.16862,349.16782 545.65397,347.70162 542.42442,347.53162 Z m 106.41768,-24.28485 c 4.7621,-3.7626 8.43965,-7.32848 11.4555,-10.80052 -3.01644,3.47161 -6.69399,7.03821 -11.4555,10.80052 z M 472.47105,623.54917 c -1.15472,-0.37565 -2.20975,-0.93987 -3.20412,-1.69379 0.99393,0.75422 2.04955,1.32281 3.20412,1.69379 z m 229.39583,-13.26081 c 1.59658,-5.74639 3.09363,-10.9758 4.56318,-15.1142 -1.47512,4.13885 -2.97214,9.36796 -4.56318,15.1142 z m 75.48154,-74.9318 c 0,-6.86617 -0.22072,-13.64449 -0.56275,-20.3227 -0.38733,-6.67819 -0.90038,-13.25744 -1.64627,-19.74752 -0.74105,-6.47956 -1.67389,-12.88019 -2.7732,-19.17237 1.11084,6.30197 2.03842,12.68227 2.7732,19.17237 0.74107,6.49008 1.27018,13.06933 1.64627,19.74752 0.38735,6.67821 0.56275,13.45653 0.56275,20.3227 z m -4.98851,-59.27446 c -1.11087,-6.30197 -2.40869,-12.48333 -3.88364,-18.59719 -1.47497,-6.10435 -3.14347,-12.13738 -4.98852,-18.0539 1.85062,5.92558 3.51355,11.94006 4.98852,18.0539 1.4694,6.10362 2.7732,12.30576 3.88364,18.59719 z m -8.87495,-36.6831 c -1.85076,-5.92558 -3.88364,-11.74111 -6.09733,-17.47873 -2.2153,-5.73763 -4.61287,-11.38608 -7.20221,-16.93557 -2.58539,-5.54981 -5.3475,-10.99917 -8.3081,-16.36043 -2.60746,-4.77685 -5.35861,-9.41033 -8.19439,-13.96386 2.82863,4.55163 5.58972,9.18963 8.19439,13.96386 2.96105,5.36096 5.72228,10.81107 8.3081,16.36043 2.58554,5.54994 4.98866,11.19794 7.20221,16.93557 2.20974,5.72825 4.25388,11.56264 6.09733,17.47873 z m -31.30462,-67.16699 c -2.81195,-4.42287 -5.7553,-8.73214 -8.79044,-12.9413 3.03851,4.21223 5.9725,8.51523 8.79044,12.9413 z m -10.23617,-14.92244 c -2.82292,-3.84227 -5.75194,-7.58647 -8.76166,-11.24779 3.01075,3.66263 5.93597,7.40391 8.76166,11.24779 z m -10.06605,-12.8774 c -3.19856,-3.82738 -6.52209,-7.52496 -9.92456,-11.15192 3.3975,3.62229 6.73097,7.32981 9.92456,11.15192 z M 544.12756,333.91929 c 0.55835,-1.0027 1.16056,-1.89929 1.7898,-2.71679 -0.63583,0.82145 -1.22635,1.70531 -1.7898,2.71679 z" />
      <glyph
         glyph-name=""
         unicode="v"
         id="glyph106"
         d="m 269.91281,813.86736 c -9.89098,0 -14.83415,-4.59123 -14.83415,-13.77648 V 266.0256 c 0,-9.1829 3.88433,-13.77501 11.65567,-13.77501 h 63.57977 c 7.76688,0 11.65569,3.88315 11.65569,11.65627 v 61.45983 c 0,3.52971 0.74918,5.65349 2.1223,6.3616 1.41795,0.75065 3.88434,-0.32173 7.41328,-3.17566 23.31196,-18.3664 44.8586,-33.90877 64.63982,-46.62435 20.48645,-13.42246 41.32608,-23.31195 62.51958,-29.67026 21.19248,-7.06965 43.79915,-10.59905 67.81756,-10.59905 55.10287,0 97.13599,14.83534 126.09994,44.50575 29.67086,29.6707 44.50605,68.17084 44.50605,115.50223 v 395.25051 c 0,11.30387 -5.29722,16.95511 -15.89525,16.95511 h -59.33841 c -4.94824,0 -8.47511,-1.07239 -10.59906,-3.17549 -2.111,-2.82147 -3.17506,-6.36158 -3.17506,-10.59906 V 421.8028 c 0,-34.61508 -8.82916,-61.45984 -26.49088,-80.53371 -17.66113,-19.78062 -45.56608,-29.67026 -83.71383,-29.67026 -20.48645,0 -39.91365,3.52968 -58.28002,10.59891 -17.66127,6.36158 -35.67644,15.8954 -54.04358,28.61081 -18.36654,12.00972 -38.85359,27.55137 -61.45954,46.6254 V 797.9827 c 0,10.59906 -5.29737,15.8954 -15.89523,15.8954 h -58.2818 z" />
      <glyph
         glyph-name=""
         unicode="w"
         id="glyph107"
         d="m 639.03581,240.0638 c -29.52654,0 -59.07688,6.32401 -88.60179,18.97829 -0.64022,0.24657 -1.18981,0.53921 -1.75725,0.82738 -24.01074,-11.56784 -51.05488,-17.43361 -81.15405,-17.43361 -29.52672,0 -59.0203,6.32416 -88.54804,18.97831 -30.22959,12.65412 -64.72026,35.53373 -103.38735,68.57582 -3.51449,2.84028 -5.92519,3.8918 -7.33381,3.14449 -1.35321,-0.7041 -2.16143,-2.83241 -2.16143,-6.34453 V 264.5588 c 0,-7.73578 -3.85139,-11.58553 -11.58553,-11.58553 h -61.12764 c -7.73976,0 -11.63988,4.59796 -11.63988,13.73716 l -2.0885,530.4 c 0,9.84208 4.946,14.78542 14.7854,14.78542 h 57.98273 c 11.2464,0 16.88192,-5.28587 16.88192,-15.83383 V 403.80638 c 27.41906,-28.12149 55.1851,-50.65441 83.30704,-67.52756 27.41859,-16.17311 56.221,-24.21946 86.45119,-24.21946 33.74515,0 60.47585,10.52196 80.16091,31.61224 18.98157,21.09101 28.46775,48.85822 28.46775,83.30598 v 370.13301 c 0,9.84208 4.59811,14.7854 13.73626,14.7854 h 59.03262 c 10.54735,0 15.83248,-5.63285 15.83248,-16.88179 V 403.80652 c 0,-32.33949 -7.41967,-60.85164 -22.17775,-85.4576 -1.83583,-2.96535 -3.75588,-5.8579 -5.7315,-8.66162 0.74123,-0.0297 1.43196,-0.0594 2.16145,-0.0594 v 0.0594 c 33.74573,0 60.47599,10.52181 80.16149,31.61222 18.98277,21.09101 28.46791,48.85838 28.46791,83.30598 v 370.13287 c 0,9.84222 4.60361,14.78541 13.73624,14.78541 h 59.03142 c 10.54841,0 15.83413,-5.63286 15.83413,-16.88193 V 401.43446 c 0,-32.33964 -7.35565,-60.8518 -22.12323,-85.45775 -14.76358,-23.90336 -34.82476,-42.52903 -60.13406,-55.88665 -25.3093,-13.35242 -54.11111,-20.02671 -86.45045,-20.02671 z" />
      <glyph
         glyph-name=""
         unicode="x"
         id="glyph108"
         d="m 734.70451,274.61072 c 5.63163,-8.44219 8.08953,-14.42647 7.38353,-17.94436 -0.7475,-2.80995 -4.58311,-4.22079 -11.60999,-4.22079 h -73.89042 c -10.55725,0 -17.9442,3.16317 -22.1662,9.50008 L 485.58757,466.72366 c -3.51595,4.92621 -6.69042,7.39481 -9.50037,7.39481 -2.11181,0.74747 -4.92563,-1.75233 -8.44264,-7.39481 L 312.47736,261.94565 c -4.21798,-6.33705 -11.61443,-9.50008 -22.16782,-9.50008 h -49.6108 c -7.04248,0 -11.96365,1.76289 -14.77821,5.27884 -2.80815,4.22079 -0.33733,10.9096 7.38413,20.05602 l 192.11368,244.88958 c 3.51596,4.92623 4.92576,8.79482 4.21796,11.61057 0,3.51597 -1.41023,7.39497 -4.21796,11.61175 L 240.69487,795.00331 c -2.11181,3.51582 -2.46563,7.04218 -1.07291,10.55786 2.11195,4.22093 5.63134,6.33706 10.55755,6.33706 h 70.72265 c 5.63163,0 9.49979,-0.74748 11.61056,-2.11582 2.80816,-1.39985 5.63224,-3.86802 8.44219,-7.38429 l 142.50125,-193.1677 c 5.63105,-7.73677 10.90439,-7.73677 15.83239,0 l 138.27928,193.1677 c 2.80831,3.51598 5.63179,5.98444 8.44173,7.38429 2.80818,1.41085 7.03074,2.11582 12.6664,2.11582 h 54.88845 c 6.33782,0 9.5004,-1.76305 9.5004,-5.279 0.74748,-2.80995 -0.33733,-5.98429 -3.15649,-9.50011 L 541.51806,558.56304 c -3.51598,-4.22094 -5.27961,-8.08955 -5.27961,-11.61072 0.74747,-3.51596 2.46579,-7.39481 5.27961,-11.6116 L 734.68592,274.6183 Z" />
      <glyph
         glyph-name=""
         unicode="y"
         id="glyph109"
         d="m 271.04144,812.88816 c -9.88457,0 -14.82679,-4.60076 -14.82679,-13.78009 V 573.85845 l -0.33789,-8.89592 V 213.39537 c -2.21084,-6.91311 -5.56946,-12.88982 -10.204,-17.87938 -9.52839,-10.04056 -24.83609,-15.05929 -45.93373,-15.05929 h -71.45914 c -4.07861,0 -6.81445,-0.47183 -8.16912,-1.48254 C 118.07453,177.4723 117,175.43412 117,172.92691 v -29.36272 c 0,-6.02377 4.47245,-9.01234 13.31509,-9.01234 h 84.71559 c 42.87726,0 74.86939,8.26601 95.96659,24.82747 20.63917,16.20081 31.1504,39.65887 31.6011,70.26687 0.28134,1.16846 0.44954,2.43368 0.44954,3.86664 v 91.16965 c 0,3.52742 0.74871,5.65923 2.12093,6.3667 1.41703,0.7502 3.88732,-0.31556 7.41309,-3.16899 23.29687,-18.35464 44.82944,-33.89501 64.59783,-46.60235 20.47336,-13.41378 41.29591,-23.29925 62.47585,-29.65344 21.17874,-7.06493 43.76396,-10.58208 67.76622,-10.58208 55.06737,0 97.0822,14.82889 126.02742,44.48008 29.65164,29.6515 44.48009,68.11483 44.48009,115.41571 v 395.00054 c 0,11.29654 -5.28264,16.94906 -15.87365,16.94906 h -59.30627 c -4.94505,0 -8.46009,-1.06724 -10.58268,-3.16913 -2.10962,-2.81947 -3.19548,-6.3765 -3.19548,-10.61125 V 421.05557 c 0,-34.59251 -8.80542,-61.40964 -26.45571,-80.47101 -17.64972,-19.76796 -45.54612,-29.65344 -83.66859,-29.65344 -20.47337,0 -39.87665,3.51773 -58.23115,10.58209 -17.64983,6.35746 -35.66066,15.89952 -54.01588,28.60687 -18.35465,12.00195 -38.83737,27.54068 -61.42885,46.60235 v 400.29179 c 0,10.59205 -5.28264,15.87319 -15.87365,15.87319 z" />
      <glyph
         glyph-name=""
         unicode="z"
         id="glyph110"
         d="m 319.53591,814.85461 c -7.13351,0 -10.96217,-2.50053 -11.47687,-7.54456 l -5.33248,-43.89825 c 0,-6.05298 3.05521,-9.08835 9.17576,-9.08835 H 607.8876 c 4.58272,0 7.14648,-0.98283 7.66103,-3.00044 0.50711,-2.01746 -0.28181,-4.5474 -2.29978,-7.57381 -18.64127,-29.06697 -35.93979,-57.72143 -52.22938,-86.01958 -3.85,2.39123 -8.04047,4.45654 -12.99201,5.85507 -0.0446,-0.0163 -0.0596,-0.0293 -0.11923,-0.0596 -26.53289,6.04073 -52.40342,9.0788 -77.193,8.65151 -24.78938,-0.42805 -48.51182,-4.33249 -70.75565,-12.14699 C 355.4715,644.40045 316.9269,613.08198 287.66498,563.2322 250.7653,503.71045 248.41688,440.12275 273.91605,383.38627 c 25.5138,-56.76871 54.20344,-96.97641 127.96586,-130.29649 0.0596,-0.0293 0.75464,0.39524 1.10512,0.58165 -0.77256,0.13423 -1.48248,0.31015 -2.12512,0.55185 0.6428,-0.24304 1.35272,-0.42209 2.12512,-0.55185 0.90233,-0.15214 1.88832,-0.2313 2.97064,-0.2313 h 60.44404 c 6.62555,0 10.45483,4.806 11.47675,14.3901 3.06087,20.68095 8.92607,45.63589 17.59442,74.89201 8.66793,29.7605 19.35269,61.7981 32.10055,96.09838 13.25751,34.80453 28.04759,70.60742 44.36419,107.42969 1.71929,3.87818 3.49485,7.70817 5.24236,11.56458 10.89835,-17.43994 16.34195,-39.89195 16.34195,-67.34759 V 265.76189 c 0,-4.13408 0.99775,-7.55977 2.97064,-10.31174 1.98419,-2.05192 5.26491,-3.11665 9.87476,-3.11665 h 55.40464 c 9.88998,0 14.82679,5.51785 14.82679,16.5455 v 241.28011 c 0,46.17477 -13.81275,78.01788 -41.50973,106.96363 -6.33364,6.78095 -13.27999,12.192 -20.85648,16.74953 -3.18497,-6.09758 -6.32801,-12.22318 -9.43853,-18.3807 3.1059,6.15453 6.25418,12.287 9.43853,18.3807 3.46668,6.63285 6.93055,13.2772 10.48626,19.83726 19.37687,34.8045 39.26107,67.34817 59.65718,97.61309 3.06085,4.5399 5.62001,9.06372 7.66102,13.6035 2.04059,5.04448 3.06088,9.59735 3.06088,13.63259 l 0.75615,27.23609 c 0.50708,2.01745 -0.28181,4.04119 -2.29994,6.05894 -2.04043,2.01746 -5.09577,3.00061 -9.17632,3.00061 z m 284.85785,-200.1491 c -9.19319,-18.22873 -18.04483,-36.73248 -26.56615,-55.49172 8.52354,18.76445 17.37133,37.25553 26.56615,55.49172 z m -100.17639,-2.47638 c 2.841,0 5.54111,-0.14921 8.09803,-0.43998 2.55914,-0.29223 4.97734,-0.7293 7.28236,-1.28111 -2.30545,0.55181 -4.72381,0.99028 -7.28236,1.28111 -2.55917,0.29386 -5.25924,0.43998 -8.09803,0.43998 z m -32.62526,-8.36006 c 29.52382,-0.4907 50.02086,-8.75276 54.03537,-10.42841 -21.1806,-40.35205 -39.99948,-79.32154 -56.16157,-116.78039 -3.20744,-7.56095 -6.22939,-14.9543 -9.26313,-22.34225 L 401.76876,332.52731 c -2.54783,1.63013 -29.00644,18.22769 -51.53038,49.34541 -23.59043,32.59094 -40.42108,78.08694 -13.69087,132.53945 32.95736,67.1367 81.0267,86.25329 121.14966,89.0782 4.80259,0.33856 9.44691,0.45043 13.89494,0.37736 z m -19.48736,-169.5631 c -1.03206,-2.59806 -2.04626,-5.20226 -3.06088,-7.77768 1.0142,2.58005 2.02374,5.17587 3.06088,7.77768 z m -9.29252,-23.85711 c -1.33034,-3.48636 -2.62104,-6.92622 -3.90069,-10.37009 1.29008,3.44299 2.57048,6.88461 3.90069,10.37009 z M 396.78751,266.3159 c -0.22511,-1.04101 -0.45043,-2.02654 -0.50708,-2.942 0.11924,0.91871 0.2818,1.89636 0.50708,2.942 z m -0.50708,-3.40807 c -0.0596,-0.67115 -0.11924,-1.29307 -0.0596,-1.89352 -0.0293,0.59208 0.007,1.23042 0.0596,1.89352 z m 0.0596,-2.73841 c 0.0596,-0.46832 0.16843,-0.92171 0.2818,-1.3393 -0.11924,0.42205 -0.22512,0.86948 -0.2818,1.3393 z m 0.50708,-2.09757 c 0.11924,-0.34452 0.33856,-0.65623 0.50709,-0.96048 -0.16843,0.30429 -0.33856,0.61746 -0.50709,0.96048 z m 0.90233,-1.60195 c 0.22512,-0.30428 0.50708,-0.58761 0.81729,-0.84564 -0.2818,0.25965 -0.57569,0.54139 -0.81729,0.84564 z m 1.39745,-1.3393 c 0.39524,-0.27594 0.8561,-0.49069 1.3408,-0.69949 -0.50708,0.20883 -0.94109,0.42359 -1.3408,0.69949 z" />
      <glyph
         glyph-name=""
         unicode="{"
         id="glyph111" />
      <glyph
         glyph-name=""
         unicode="|"
         id="glyph112" />
      <glyph
         glyph-name=""
         unicode="}"
         id="glyph113" />
      <glyph
         glyph-name=""
         unicode="~"
         id="glyph114" />
      <glyph
         glyph-name=""
         unicode=" "
         id="glyph115" />
      <glyph
         glyph-name=""
         unicode="¡"
         id="glyph116" />
      <glyph
         glyph-name=""
         unicode="¢"
         id="glyph117" />
      <glyph
         glyph-name=""
         unicode="£"
         id="glyph118" />
      <glyph
         glyph-name=""
         unicode="¤"
         id="glyph119" />
      <glyph
         glyph-name=""
         unicode="¥"
         id="glyph120" />
      <glyph
         glyph-name=""
         unicode="¦"
         id="glyph121" />
      <glyph
         glyph-name=""
         unicode="§"
         id="glyph122" />
      <glyph
         glyph-name=""
         unicode="¨"
         id="glyph123" />
      <glyph
         glyph-name=""
         unicode="©"
         id="glyph124" />
      <glyph
         glyph-name=""
         unicode="ª"
         id="glyph125" />
      <glyph
         glyph-name=""
         unicode="«"
         id="glyph126" />
      <glyph
         glyph-name=""
         unicode="¬"
         id="glyph127" />
      <glyph
         glyph-name=""
         unicode="­"
         id="glyph128" />
      <glyph
         glyph-name=""
         unicode="®"
         id="glyph129" />
      <glyph
         glyph-name=""
         unicode="¯"
         id="glyph130" />
      <glyph
         glyph-name=""
         unicode="°"
         id="glyph131" />
      <glyph
         glyph-name=""
         unicode="±"
         id="glyph132" />
      <glyph
         glyph-name=""
         unicode="²"
         id="glyph133" />
      <glyph
         glyph-name=""
         unicode="³"
         id="glyph134" />
      <glyph
         glyph-name=""
         unicode="´"
         id="glyph135" />
      <glyph
         glyph-name=""
         unicode="µ"
         id="glyph136" />
      <glyph
         glyph-name=""
         unicode="¶"
         id="glyph137" />
      <glyph
         glyph-name=""
         unicode="·"
         id="glyph138" />
      <glyph
         glyph-name=""
         unicode="¸"
         id="glyph139" />
      <glyph
         glyph-name=""
         unicode="¹"
         id="glyph140" />
      <glyph
         glyph-name=""
         unicode="º"
         id="glyph141" />
      <glyph
         glyph-name=""
         unicode="»"
         id="glyph142" />
      <glyph
         glyph-name=""
         unicode="¼"
         id="glyph143" />
      <glyph
         glyph-name=""
         unicode="½"
         id="glyph144" />
      <glyph
         glyph-name=""
         unicode="¾"
         id="glyph145" />
      <glyph
         glyph-name=""
         unicode="¿"
         id="glyph146" />
      <glyph
         glyph-name=""
         unicode="À"
         id="glyph147" />
      <glyph
         glyph-name=""
         unicode="Á"
         id="glyph148" />
      <glyph
         glyph-name=""
         unicode="Â"
         id="glyph149" />
      <glyph
         glyph-name=""
         unicode="Ã"
         id="glyph150" />
      <glyph
         glyph-name=""
         unicode="Ä"
         id="glyph151" />
      <glyph
         glyph-name=""
         unicode="Å"
         id="glyph152" />
      <glyph
         glyph-name=""
         unicode="Æ"
         id="glyph153" />
      <glyph
         glyph-name=""
         unicode="Ç"
         id="glyph154" />
      <glyph
         glyph-name=""
         unicode="È"
         id="glyph155" />
      <glyph
         glyph-name=""
         unicode="É"
         id="glyph156" />
      <glyph
         glyph-name=""
         unicode="Ê"
         id="glyph157" />
      <glyph
         glyph-name=""
         unicode="Ë"
         id="glyph158" />
      <glyph
         glyph-name=""
         unicode="Ì"
         id="glyph159" />
      <glyph
         glyph-name=""
         unicode="Í"
         id="glyph160" />
      <glyph
         glyph-name=""
         unicode="Î"
         id="glyph161" />
      <glyph
         glyph-name=""
         unicode="Ï"
         id="glyph162" />
      <glyph
         glyph-name=""
         unicode="Ð"
         id="glyph163" />
      <glyph
         glyph-name=""
         unicode="Ñ"
         id="glyph164" />
      <glyph
         glyph-name=""
         unicode="Ò"
         id="glyph165" />
      <glyph
         glyph-name=""
         unicode="Ó"
         id="glyph166" />
      <glyph
         glyph-name=""
         unicode="Ô"
         id="glyph167" />
      <glyph
         glyph-name=""
         unicode="Õ"
         id="glyph168" />
      <glyph
         glyph-name=""
         unicode="Ö"
         id="glyph169" />
      <glyph
         glyph-name=""
         unicode="×"
         id="glyph170" />
      <glyph
         glyph-name=""
         unicode="Ø"
         id="glyph171" />
      <glyph
         glyph-name=""
         unicode="Ù"
         id="glyph172" />
      <glyph
         glyph-name=""
         unicode="Ú"
         id="glyph173" />
      <glyph
         glyph-name=""
         unicode="Û"
         id="glyph174" />
      <glyph
         glyph-name=""
         unicode="Ü"
         id="glyph175" />
      <glyph
         glyph-name=""
         unicode="Ý"
         id="glyph176" />
      <glyph
         glyph-name=""
         unicode="Þ"
         id="glyph177" />
      <glyph
         glyph-name=""
         unicode="ß"
         id="glyph178" />
      <glyph
         glyph-name=""
         unicode="à"
         id="glyph179"
         d="m 433.94922,944.99609 c -2.10448,0.0751 -3.75684,-1.08928 -4.95899,-3.49414 h -0.004 l -9.01758,-27.05664 c -1.60329,-5.21078 0.60069,-8.81807 6.61328,-10.82226 l 137.08399,-41.48633 c 2.80804,-0.40155 4.81246,-0.40155 6.01367,0 1.6064,0.80148 2.8095,2.40545 3.60937,4.81055 l 4.8086,13.22656 c 1.60285,4.40918 0.80153,7.21557 -2.4043,8.41797 l -139.48818,55.91601 c -0.80175,0.30057 -1.55437,0.46326 -2.25586,0.48828 z M 501.59375,811 C 455.29684,811 416.94502,803.74889 386.54102,789.23242 355.4461,775.4129 332.2977,755.02881 317.0957,728.08008 301.20263,701.82181 293.25781,670.38019 293.25781,633.75781 V 266.83789 c 0,-6.22243 1.03703,-10.36918 3.10742,-12.43945 2.07218,-2.06726 5.5278,-3.10547 10.36524,-3.10547 h 52.86328 c 4.83637,0 8.29183,1.38741 10.36523,4.14648 2.07279,3.45197 3.45269,7.59695 4.14454,12.4375 l 1.03906,47.67774 c 2.07221,9.67484 7.2545,10.36812 15.54687,2.07812 l -0.002,-0.0195 c 25.56703,-24.87638 53.55303,-43.87876 83.95703,-57.00781 29.71291,-13.12906 63.2271,-19.69141 100.54102,-19.69141 53.89792,0 96.39335,13.81873 127.48828,41.45899 30.40398,27.63922 45.60742,63.91878 45.60742,108.83398 0,36.62237 -10.36594,68.06207 -31.0957,94.32031 -20.73,26.94872 -51.47898,48.02396 -92.248,63.22654 -40.76888,15.89309 -90.867,25.56608 -150.29297,29.02148 l -80.84765,6.22266 c -4.1462,0.73494 -7.94544,2.07892 -11.4004,4.14648 -3.45555,2.06696 -5.18359,5.86426 -5.18359,11.40039 v 27.98633 c 0,37.31406 11.74811,66.68072 35.24219,88.10156 22.80284,22.11132 53.89814,33.16797 93.28515,33.16797 30.40398,0 58.044,-6.91512 82.91993,-20.73047 24.185,-13.81967 45.95078,-34.55024 65.29882,-62.18945 2.76359,-3.45227 5.18352,-5.87462 7.25586,-7.25977 1.38158,-0.73494 4.14541,-0.31478 8.29102,1.04883 l 55.9707,18.65625 c 2.07219,1.38455 3.80159,3.11649 5.1836,5.1836 0.69305,2.0671 -0.34758,5.86515 -3.10938,11.40039 -20.73018,35.9319 -49.75251,64.2638 -87.0664,84.99414 C 602.47937,800.63496 556.18276,811 501.59375,811 Z m -109.86914,-279.86719 68.41016,-6.2207 c 31.78585,-1.38455 60.11609,-5.5318 84.99218,-12.43945 24.87595,-6.22244 45.95146,-14.50998 63.22657,-24.875 17.27494,-10.36742 30.40355,-22.80444 39.38671,-37.31446 8.98332,-13.82073 13.47461,-30.05985 13.47461,-48.71679 0,-30.40416 -10.36596,-54.24355 -31.0957,-71.51758 -21.42098,-16.58447 -50.0974,-24.875 -86.0293,-24.875 -22.1119,0 -43.18775,3.79834 -63.22656,11.40039 -20.73005,8.28968 -38.69448,18.65712 -53.89648,31.0957 -15.89307,13.1292 -27.98737,26.60234 -36.2793,40.42188 -8.98329,13.81967 -13.47461,27.29657 -13.47461,40.42578 v 86.02734 0.004 c 0,11.74614 4.83778,17.27446 14.51172,16.58398 z" />
      <glyph
         glyph-name=""
         unicode="á"
         id="glyph180" />
      <glyph
         glyph-name=""
         unicode="â"
         id="glyph181"
         d="m 488.36719,944.07227 c -4.43608,0 -8.13382,-0.73975 -11.09375,-2.21875 -2.46587,-1.47903 -4.93062,-3.45067 -7.39649,-5.91602 L 393.69922,868.63477 C 391.23335,866.16941 390,863.95069 390,861.97852 c 0.48919,-1.47902 2.45992,-2.21875 5.91406,-2.21875 h 39.93946 c 2.96007,0 5.17879,0.24602 6.65625,0.74023 1.47759,0.49317 3.69631,1.72705 6.65625,3.69922 l 42.15625,36.97851 c 4.93226,3.94437 8.13582,5.91602 9.61328,5.91602 1.47747,0 3.94417,-1.97165 7.39843,-5.91602 l 39.93555,-36.98046 c 2.46587,-1.97115 4.68459,-3.20307 6.65625,-3.69727 1.97167,-0.49421 4.43642,-0.74219 7.39649,-0.74219 h 42.89648 c 7.39761,0 7.89214,2.9583 1.48242,8.875 l -75.4375,68.04297 c -1.97166,1.47952 -3.94435,2.9585 -5.91601,4.4375 -1.9747,1.97219 -4.68564,2.95899 -8.13477,2.95899 z M 501.59375,811 C 455.29684,811 416.94502,803.74889 386.54102,789.23242 355.4461,775.4129 332.2977,755.02881 317.0957,728.08008 301.20263,701.82181 293.25781,670.38019 293.25781,633.75781 V 266.83789 c 0,-6.22243 1.03703,-10.36918 3.10742,-12.43945 2.07218,-2.06726 5.5278,-3.10547 10.36524,-3.10547 h 52.86328 c 4.83637,0 8.29183,1.38741 10.36523,4.14648 2.07279,3.45197 3.45269,7.59695 4.14454,12.4375 l 1.03906,47.67774 c 2.07221,9.67484 7.2545,10.36812 15.54687,2.07812 l -0.002,-0.0195 c 25.56703,-24.87638 53.55303,-43.87876 83.95703,-57.00781 29.71291,-13.12906 63.2271,-19.69141 100.54102,-19.69141 53.89792,0 96.39335,13.81873 127.48828,41.45899 30.40398,27.63922 45.60742,63.91878 45.60742,108.83398 0,36.62237 -10.36594,68.06207 -31.0957,94.32031 -20.73,26.94872 -51.47898,48.02396 -92.248,63.22654 -40.76888,15.89309 -90.867,25.56608 -150.29297,29.02148 l -80.84765,6.22266 c -4.1462,0.73494 -7.94544,2.07892 -11.4004,4.14648 -3.45555,2.06696 -5.18359,5.86426 -5.18359,11.40039 v 27.98633 c 0,37.31406 11.74811,66.68072 35.24219,88.10156 22.80284,22.11132 53.89814,33.16797 93.28515,33.16797 30.40398,0 58.044,-6.91512 82.91993,-20.73047 24.185,-13.81967 45.95078,-34.55024 65.29882,-62.18945 2.76359,-3.45227 5.18352,-5.87462 7.25586,-7.25977 1.38158,-0.73494 4.14541,-0.31478 8.29102,1.04883 l 55.9707,18.65625 c 2.07219,1.38455 3.80159,3.11649 5.1836,5.1836 0.69305,2.0671 -0.34758,5.86515 -3.10938,11.40039 -20.73018,35.9319 -49.75251,64.2638 -87.0664,84.99414 C 602.47937,800.63496 556.18276,811 501.59375,811 Z m -109.86914,-279.86719 68.41016,-6.2207 c 31.78585,-1.38455 60.11609,-5.5318 84.99218,-12.43945 24.87595,-6.22244 45.95146,-14.50998 63.22657,-24.875 17.27494,-10.36742 30.40355,-22.80444 39.38671,-37.31446 8.98332,-13.82073 13.47461,-30.05985 13.47461,-48.71679 0,-30.40416 -10.36596,-54.24355 -31.0957,-71.51758 -21.42098,-16.58447 -50.0974,-24.875 -86.0293,-24.875 -22.1119,0 -43.18775,3.79834 -63.22656,11.40039 -20.73005,8.28968 -38.69448,18.65712 -53.89648,31.0957 -15.89307,13.1292 -27.98737,26.60234 -36.2793,40.42188 -8.98329,13.81967 -13.47461,27.29657 -13.47461,40.42578 v 86.02734 0.004 c 0,11.74614 4.83778,17.27446 14.51172,16.58398 z" />
      <glyph
         glyph-name=""
         unicode="ã"
         id="glyph182" />
      <glyph
         glyph-name=""
         unicode="ä"
         id="glyph183" />
      <glyph
         glyph-name=""
         unicode="å"
         id="glyph184" />
      <glyph
         glyph-name=""
         unicode="æ"
         id="glyph185" />
      <glyph
         glyph-name=""
         unicode="ç"
         id="glyph186"
         d="m 574.88344,719 c -25.37193,0 -48.13302,-6.71966 -68.28141,-20.15193 -19.77535,-13.05969 -35.25793,-31.52689 -46.4515,-55.40623 -10.82022,-23.50662 -16.2314,-51.11933 -16.2314,-82.83475 0,-32.83376 5.41094,-60.44791 16.2314,-82.83483 11.19357,-22.01411 26.11746,-38.61446 44.77343,-49.80747 18.65596,-11.19214 39.74091,-16.7803 63.24745,-16.7803 0.41994,0 0.82181,0.0161 1.23878,0.0161 l -11.11891,-25.54673 c -0.69615,-1.0309 -0.88123,-1.72528 -0.53315,-2.06999 0.68571,-0.68812 1.88699,-1.03515 3.60689,-1.03515 14.44534,-0.34366 24.93996,-2.41148 31.4747,-6.19462 6.87849,-3.78323 10.3191,-9.62254 10.3191,-17.53297 0,-6.53475 -2.39895,-11.34815 -7.21388,-14.44357 -4.81476,-3.43932 -12.21653,-5.15955 -22.19076,-5.15955 -7.22238,0 -13.40889,1.02584 -18.56804,3.08949 -4.81508,1.71966 -9.29711,3.96059 -13.42415,6.71211 -2.06485,1.03178 -3.61139,0.68491 -4.64205,-1.03507 l -5.67704,-13.4085 c -0.68973,-1.71974 0.005,-3.26629 2.06998,-4.64205 6.53483,-3.78322 13.58924,-6.54502 21.15569,-8.26468 7.56644,-2.06357 15.64661,-3.0894 24.24508,-3.0894 10.31789,0 19.59758,1.72022 27.85206,5.15954 8.59815,3.09535 15.47905,7.56163 20.63811,13.4085 5.15875,5.84678 7.74711,13.24847 7.74711,22.19068 0,5.84678 -1.37375,11.51258 -4.12447,17.01547 -2.40746,5.50296 -6.87367,10.3321 -13.4085,14.45922 -6.19076,3.78307 -14.7918,6.00834 -25.79765,6.69646 -2.06485,0 -2.75947,0.8679 -2.06999,2.58773 l 5.59868,13.86328 c 5.07138,1.14499 9.82159,2.64842 14.2397,4.50089 11.56687,4.85066 21.07932,10.43713 28.54203,16.78021 7.83535,6.3418 13.80732,11.38396 17.90939,15.11788 2.23933,2.23242 3.91121,3.18816 5.03405,2.79135 1.4901,-0.37417 2.2427,-2.04815 2.2427,-5.03405 v -23.50798 c 0,-2.60932 0.55483,-4.65747 1.6779,-6.14757 1.49308,-1.11039 3.53464,-1.67791 6.14757,-1.67791 l 0.0161,-0.0161 h 28.54203 c 3.72911,0 6.15383,0.56206 7.27675,1.67791 1.11071,1.49251 1.67365,3.91667 1.67791,7.27667 l 0.36052,284.90338 c 0.006,4.8505 -2.06083,7.27667 -6.16315,7.27667 h -34.14079 c -4.10472,0 -6.05643,-2.42754 -6.14748,-7.27667 l -0.37658,-17.37615 c -0.0851,-4.10199 -0.7371,-6.52897 -2.22696,-7.27675 -1.1177,-0.36855 -3.3677,0.75958 -6.72778,3.3718 -9.32786,7.83551 -20.14984,14.73126 -32.46272,20.70082 C 608.45719,716.01458 593.16628,719 574.88344,719 Z m 11.19727,-34.6896 c 14.92454,0 28.34877,-3.17628 40.28828,-9.51928 11.93991,-6.34309 23.70326,-15.29742 35.26989,-26.86405 V 513.04215 c 0,-10.0742 -3.55896,-20.33765 -10.64838,-30.78465 -6.71589,-10.44764 -16.03822,-19.21016 -27.97757,-26.29957 -11.56686,-7.08709 -25.00611,-10.63265 -40.30393,-10.63265 -16.41728,0 -31.51701,3.91057 -45.32232,11.74617 -13.80547,8.20896 -24.81863,20.89834 -33.02727,38.06131 -8.2084,17.53674 -12.31071,39.93049 -12.31071,67.16806 0,26.4914 3.91065,48.86988 11.74616,67.15232 8.20856,18.28251 19.41322,31.89769 33.59182,40.85282 14.55156,9.32834 30.78424,14.00444 48.69403,14.00444 z" />
      <glyph
         glyph-name=""
         unicode="è"
         id="glyph187"
         d="m 433.94922,944.99609 c -2.10448,0.0751 -3.75684,-1.08928 -4.95899,-3.49414 h -0.004 l -9.01758,-27.05664 c -1.60329,-5.21078 0.60069,-8.81807 6.61328,-10.82226 l 137.08399,-41.48633 c 2.80804,-0.40155 4.81246,-0.40155 6.01367,0 1.6064,0.80148 2.8095,2.40545 3.60937,4.81055 l 4.8086,13.22656 c 1.60285,4.40918 0.80153,7.21557 -2.4043,8.41797 l -139.48818,55.91601 c -0.80175,0.30057 -1.55437,0.46326 -2.25586,0.48828 z m 55.42969,-130.16015 0.0117,-0.002 c -35.48174,0 -66.50587,-5.80435 -93.11718,-17.40234 -27.29362,-10.91673 -50.50347,-26.26093 -69.60938,-46.04883 -19.7885,-19.10486 -36.13659,-40.25314 -49.10156,-63.45312 -4.09437,-8.18606 -2.41589,-13.31971 5.08594,-15.36719 l 56.27734,-13.33398 c 4.77341,-2.04125 9.23885,0.0168 13.33203,6.1582 13.64695,19.78761 27.3155,35.8569 40.96289,48.13867 12.96496,12.28192 26.91468,21.48751 41.92578,27.62891 15.01214,6.82845 31.41612,10.22851 49.15625,10.22851 34.80064,0 65.4883,-8.87212 92.09961,-26.61328 25.92828,-17.05858 46.07055,-41.9447 60.40039,-74.69726 10.57403,-24.18033 17.20831,-51.74659 19.97266,-82.6211 H 420.1543 c -7.50482,0 -11.24414,-3.73799 -11.24414,-11.24414 V 501.9648 c 0,-2.72828 0.66142,-5.13141 2.02929,-7.17578 1.36755,-1.37186 4.43549,-2.03515 9.21289,-2.03515 h 235.97657 c -3.06715,-28.7533 -9.44517,-54.52 -19.33008,-77.10743 -15.01214,-32.75226 -35.48655,-57.63703 -61.41602,-74.69531 -26.61115,-17.05902 -57.63679,-25.5957 -93.11914,-25.5957 -32.75123,0 -61.09428,8.19932 -84.97656,24.57812 -23.88169,16.37555 -45.69798,40.25671 -65.48633,71.64453 -2.04096,3.40851 -3.77473,5.08594 -5.14258,5.08594 -2.05163,0.72799 -4.78816,0.33342 -8.19726,-1.01367 l -44.01367,-16.38672 c -4.79476,-2.04126 -6.11142,-6.44981 -4.07032,-13.27929 10.23533,-17.74132 22.17395,-34.81362 35.82032,-51.18946 13.64679,-16.37688 29.66232,-30.71658 48.08593,-42.99804 17.74059,-12.28192 37.88361,-22.15794 60.40039,-29.66407 22.5174,-6.82844 47.40216,-10.22656 74.69532,-10.22656 50.49403,0 95.18729,11.60574 134.08007,34.80469 38.21137,23.88153 68.22892,56.63466 90.06446,98.25781 21.8345,42.3047 32.77148,91.07034 32.77148,146.33984 0,55.95226 -10.93698,105.10892 -32.77148,147.41407 -22.51739,42.30484 -52.87125,75.39041 -91.08203,99.27343 -38.89336,24.56442 -83.25135,36.83985 -133.0625,36.83985 z" />
      <glyph
         glyph-name=""
         unicode="é"
         id="glyph188"
         d="m 562.77734,942.99609 c -0.74433,-0.0248 -1.56384,-0.18472 -2.45703,-0.48242 l -138.14453,-55.3789 c -3.17486,-1.19091 -3.97024,-3.96927 -2.38281,-8.33594 l 4.76367,-13.09961 c 0.79579,-2.38161 1.78703,-3.96959 2.97656,-4.76367 1.58584,-0.3979 3.76967,-0.3979 6.55078,0 l 135.76563,41.08593 c 5.95395,1.98482 8.13626,5.55812 6.54883,10.71875 l -8.93164,26.79493 c -0.89335,2.38176 -2.45645,3.53531 -4.68946,3.46093 z m -73.39843,-128.16015 0.0117,-0.002 c -35.48174,0 -66.50587,-5.80435 -93.11718,-17.40234 -27.29362,-10.91673 -50.50347,-26.26093 -69.60938,-46.04883 -19.7885,-19.10486 -36.13659,-40.25314 -49.10156,-63.45312 -4.09437,-8.18606 -2.41589,-13.31971 5.08594,-15.36719 l 56.27734,-13.33398 c 4.77341,-2.04125 9.23885,0.0168 13.33203,6.1582 13.64695,19.78761 27.3155,35.8569 40.96289,48.13867 12.96496,12.28192 26.91468,21.48751 41.92578,27.62891 15.01214,6.82845 31.41612,10.22851 49.15625,10.22851 34.80064,0 65.4883,-8.87212 92.09961,-26.61328 25.92828,-17.05858 46.07055,-41.9447 60.40039,-74.69726 10.57403,-24.18033 17.20831,-51.74659 19.97266,-82.6211 H 420.1543 c -7.50482,0 -11.24414,-3.73799 -11.24414,-11.24414 V 501.9648 c 0,-2.72828 0.66142,-5.13141 2.02929,-7.17578 1.36755,-1.37186 4.43549,-2.03515 9.21289,-2.03515 h 235.97657 c -3.06715,-28.7533 -9.44517,-54.52 -19.33008,-77.10743 -15.01214,-32.75226 -35.48655,-57.63703 -61.41602,-74.69531 -26.61115,-17.05902 -57.63679,-25.5957 -93.11914,-25.5957 -32.75123,0 -61.09428,8.19932 -84.97656,24.57812 -23.88169,16.37555 -45.69798,40.25671 -65.48633,71.64453 -2.04096,3.40851 -3.77473,5.08594 -5.14258,5.08594 -2.05163,0.72799 -4.78816,0.33342 -8.19726,-1.01367 l -44.01367,-16.38672 c -4.79476,-2.04126 -6.11142,-6.44981 -4.07032,-13.27929 10.23533,-17.74132 22.17395,-34.81362 35.82032,-51.18946 13.64679,-16.37688 29.66232,-30.71658 48.08593,-42.99804 17.74059,-12.28192 37.88361,-22.15794 60.40039,-29.66407 22.5174,-6.82844 47.40216,-10.22656 74.69532,-10.22656 50.49403,0 95.18729,11.60574 134.08007,34.80469 38.21137,23.88153 68.22892,56.63466 90.06446,98.25781 21.8345,42.3047 32.77148,91.07034 32.77148,146.33984 0,55.95226 -10.93698,105.10892 -32.77148,147.41407 -22.51739,42.30484 -52.87125,75.39041 -91.08203,99.27343 -38.89336,24.56442 -83.25135,36.83985 -133.0625,36.83985 z" />
      <glyph
         glyph-name=""
         unicode="ê"
         id="glyph189"
         d="m 488.36914,946 c -2.21804,0 -4.25256,-0.18494 -6.10156,-0.55469 -1.84901,-0.36975 -3.51417,-0.92456 -4.99414,-1.66406 -1.22397,-0.73413 -2.44595,-1.59122 -3.66992,-2.56836 -0.0206,-0.0164 -0.0419,-0.0323 -0.0625,-0.0488 -1.22132,-0.9791 -2.44275,-2.07777 -3.66407,-3.29883 L 393.69922,870.5625 C 391.23335,868.09715 390,865.87843 390,863.90625 c 0.1223,-0.36975 0.33692,-0.69339 0.64453,-0.9707 0.30761,-0.27732 0.70826,-0.50849 1.20117,-0.69336 0.98584,-0.36976 2.34324,-0.55469 4.07032,-0.55469 h 39.9375 c 1.48388,0 2.77932,0.0633 3.89062,0.1875 1.10554,0.12355 2.02882,0.30822 2.76563,0.55469 1.47759,0.49317 3.69631,1.72509 6.65625,3.69726 l 42.15625,36.97852 c 2.46612,1.97218 4.49945,3.45105 6.10156,4.4375 0.81207,0.49972 1.51131,0.87071 2.10156,1.11719 0.57315,0.23928 1.04636,0.36328 1.41016,0.36328 0.36664,0 0.79475,-0.12416 1.2832,-0.36719 0.004,-0.002 0.006,-1.3e-4 0.01,-0.002 0.16458,-0.0822 0.37631,-0.26138 0.55468,-0.37109 0.35628,-0.21936 0.70009,-0.41122 1.11133,-0.74024 1.23298,-0.98644 2.71271,-2.46575 4.43945,-4.4375 l 39.93555,-36.97852 c 1.23294,-0.98557 2.40429,-1.78796 3.51367,-2.40429 1.10939,-0.61634 2.15675,-1.04783 3.14258,-1.29493 1.97167,-0.49421 4.43642,-0.74023 7.39649,-0.74023 h 42.89648 c 1.8494,0 3.26746,0.18489 4.25391,0.55469 0.49322,0.18489 0.87876,0.41601 1.15625,0.69336 0.27483,0.27469 0.44071,0.59555 0.5039,0.96093 10e-4,0.008 0.003,0.0169 0.004,0.0254 0.0581,0.36609 0.0152,0.77631 -0.13672,1.23242 -0.15534,0.46639 -0.4258,0.98246 -0.80078,1.54297 -0.74005,1.10579 -1.90337,2.39321 -3.49805,3.86523 l -75.4375,68.04102 c -1.97166,1.47952 -3.94435,2.95849 -5.91601,4.4375 -0.98694,0.98568 -2.15844,1.7257 -3.51368,2.21875 -0.002,6.1e-4 -0.004,-6.1e-4 -0.006,0 C 520.473,945.75198 518.936,946 517.21289,946 Z m 1.00977,-131.16406 0.0117,-0.002 c -35.4817,0 -66.5059,-5.80436 -93.11718,-17.40234 -27.2936,-10.91672 -50.50349,-26.26095 -69.60938,-46.04883 -19.78848,-19.10484 -36.1366,-40.25317 -49.10156,-63.45312 -4.09437,-8.18605 -2.41588,-13.31971 5.08594,-15.36719 l 56.27734,-13.33398 c 4.77341,-2.04125 9.23886,0.0168 13.33203,6.1582 13.64694,19.78759 27.31552,35.85691 40.96289,48.13867 12.96495,12.28191 26.9147,21.48751 41.92578,27.62891 15.01213,6.82844 31.41614,10.22851 49.15625,10.22851 34.80061,0 65.48833,-8.87214 92.09961,-26.61328 25.92826,-17.05856 46.07057,-41.94474 60.40039,-74.69726 10.57402,-24.18031 17.20831,-51.74662 19.97266,-82.6211 H 420.1543 c -7.50482,0 -11.24414,-3.738 -11.24414,-11.24414 V 501.9648 c 0,-2.72827 0.66142,-5.13141 2.02929,-7.17578 1.36755,-1.37186 4.4355,-2.03515 9.21289,-2.03515 h 235.97657 c -3.06715,-28.75327 -9.44518,-54.52002 -19.33008,-77.10743 -15.01213,-32.75222 -35.48657,-57.63705 -61.41602,-74.69531 -26.61112,-17.059 -57.63682,-25.5957 -93.11914,-25.5957 -32.7512,0 -61.0943,8.19934 -84.97656,24.57812 -23.88167,16.37554 -45.698,40.25675 -65.48633,71.64453 -2.04096,3.40851 -3.77473,5.08594 -5.14258,5.08594 -2.05162,0.72799 -4.78817,0.33342 -8.19726,-1.01367 l -44.01367,-16.38672 c -4.79476,-2.04126 -6.11141,-6.44982 -4.07032,-13.27929 10.23532,-17.74131 22.17396,-34.81363 35.82032,-51.18946 13.64677,-16.37686 29.66234,-30.7166 48.08593,-42.99804 17.74058,-12.28191 37.88364,-22.15795 60.40039,-29.66407 22.51738,-6.82843 47.40218,-10.22656 74.69532,-10.22656 50.49398,0 95.18733,11.60576 134.08007,34.80469 38.21134,23.8815 68.22894,56.6347 90.06446,98.25781 21.83448,42.30466 32.77148,91.0704 32.77148,146.33984 0,55.95221 -10.937,105.10896 -32.77148,147.41407 -22.51737,42.30479 -52.87129,75.39044 -91.08203,99.27343 -38.89332,24.5644 -83.2514,36.83985 -133.0625,36.83985 z" />
      <glyph
         glyph-name=""
         unicode="ë"
         id="glyph190"
         d="M 443.76758,946 C 439.92298,946 438,943.7275 438,939.18359 v -44.04101 c 0,-2.44692 0.52293,-4.19371 1.57031,-5.24219 1.04953,-1.04847 2.97214,-1.57226 5.76758,-1.57227 h 27.78906 c 3.49651,0 5.76708,0.5238 6.81446,1.57227 1.39771,1.04859 2.09765,3.14523 2.09765,6.29102 l 0.002,43.51757 c -8e-5,4.19437 -1.92303,6.29102 -5.76762,6.29102 z m 77.06836,0 c -3.84498,0 -5.76786,-2.2725 -5.76758,-6.81641 v -44.04101 c 0,-2.44692 0.35047,-4.19371 1.05078,-5.24219 1.0485,-1.04847 3.14523,-1.57226 6.29102,-1.57227 h 27.26367 c 3.49678,0 5.76904,0.5238 6.8164,1.57227 1.39782,1.04859 2.09571,3.14523 2.09571,6.29102 l -0.002,43.51757 c 8e-5,4.19437 -1.92257,6.29102 -5.76753,6.29102 z m -31.45703,-131.16406 0.0117,-0.002 c -35.48174,0 -66.50587,-5.80435 -93.11718,-17.40234 -27.29362,-10.91673 -50.50347,-26.26093 -69.60938,-46.04883 -19.7885,-19.10486 -36.13659,-40.25314 -49.10156,-63.45312 -4.09437,-8.18606 -2.41589,-13.31971 5.08594,-15.36719 l 56.27734,-13.33398 c 4.77341,-2.04125 9.23885,0.0168 13.33203,6.1582 13.64695,19.78761 27.3155,35.8569 40.96289,48.13867 12.96496,12.28192 26.91468,21.48751 41.92578,27.62891 15.01214,6.82845 31.41612,10.22851 49.15625,10.22851 34.80064,0 65.4883,-8.87212 92.09961,-26.61328 25.92828,-17.05858 46.07055,-41.9447 60.40039,-74.69726 10.57403,-24.18033 17.20831,-51.74659 19.97266,-82.6211 H 420.1543 c -7.50482,0 -11.24414,-3.73799 -11.24414,-11.24414 V 501.9648 c 0,-2.72828 0.66142,-5.13141 2.02929,-7.17578 1.36755,-1.37186 4.43549,-2.03515 9.21289,-2.03515 h 235.97657 c -3.06715,-28.7533 -9.44517,-54.52 -19.33008,-77.10743 -15.01214,-32.75226 -35.48655,-57.63703 -61.41602,-74.69531 -26.61115,-17.05902 -57.63679,-25.5957 -93.11914,-25.5957 -32.75123,0 -61.09428,8.19932 -84.97656,24.57812 -23.88169,16.37555 -45.69798,40.25671 -65.48633,71.64453 -2.04096,3.40851 -3.77473,5.08594 -5.14258,5.08594 -2.05163,0.72799 -4.78816,0.33342 -8.19726,-1.01367 l -44.01367,-16.38672 c -4.79476,-2.04126 -6.11142,-6.44981 -4.07032,-13.27929 10.23533,-17.74132 22.17395,-34.81362 35.82032,-51.18946 13.64679,-16.37688 29.66232,-30.71658 48.08593,-42.99804 17.74059,-12.28192 37.88361,-22.15794 60.40039,-29.66407 22.5174,-6.82844 47.40216,-10.22656 74.69532,-10.22656 50.49403,0 95.18729,11.60574 134.08007,34.80469 38.21137,23.88153 68.22892,56.63466 90.06446,98.25781 21.8345,42.3047 32.77148,91.07034 32.77148,146.33984 0,55.95226 -10.93698,105.10892 -32.77148,147.41407 -22.51739,42.30484 -52.87125,75.39041 -91.08203,99.27343 -38.89336,24.56442 -83.25135,36.83985 -133.0625,36.83985 z" />
      <glyph
         glyph-name=""
         unicode="ì"
         id="glyph191" />
      <glyph
         glyph-name=""
         unicode="í"
         id="glyph192" />
      <glyph
         glyph-name=""
         unicode="î"
         id="glyph193"
         d="m 488.36914,946 c -4.43607,0 -8.13577,-0.73974 -11.0957,-2.21875 -2.46587,-1.47902 -4.93062,-3.45066 -7.39649,-5.91602 L 393.69922,870.5625 C 391.23335,868.09715 390,865.87843 390,863.90625 c 0.48919,-1.47901 2.46187,-2.21875 5.91602,-2.21875 h 39.9375 c 2.96007,0 5.17879,0.24797 6.65625,0.74219 1.47759,0.49317 3.69631,1.72509 6.65625,3.69726 l 42.15625,36.97852 c 4.93226,3.94436 8.13582,5.91797 9.61328,5.91797 1.47747,0 3.94417,-1.97361 7.39843,-5.91797 l 39.93555,-36.97852 c 2.46587,-1.97114 4.68459,-3.20502 6.65625,-3.69922 1.97167,-0.49421 4.43642,-0.74023 7.39649,-0.74023 h 42.89648 c 7.39761,0 7.89214,2.9583 1.48242,8.875 l -75.4375,68.04102 c -1.97166,1.47952 -3.94435,2.95849 -5.91601,4.4375 C 523.37296,945.0132 520.66202,946 517.21289,946 Z M 466.16992,810.99805 c -8.44497,0 -12.66211,-4.923 -12.66211,-14.77149 v -529.6582 c 0,-5.63446 1.05546,-9.50091 3.15821,-11.60547 2.10858,-2.09378 6.32812,-3.16016 12.6621,-3.16016 h 53.81055 c 7.7417,0 12.66859,1.05607 14.77149,3.16016 2.8096,2.81245 4.21679,7.73229 4.21679,14.77149 l 0.01,527.54687 c 0,9.14419 -3.87424,13.7168 -11.60742,13.7168 z" />
      <glyph
         glyph-name=""
         unicode="ï"
         id="glyph194"
         d="M 443.76758,946 C 439.92298,946 438,943.7275 438,939.18359 v -44.04101 c 0,-2.44692 0.52293,-4.19371 1.57031,-5.24219 1.04953,-1.04847 2.97214,-1.57226 5.76758,-1.57227 h 27.78906 c 3.49651,0 5.76708,0.5238 6.81446,1.57227 1.39771,1.04859 2.09765,3.14523 2.09765,6.29102 l 0.002,43.51757 c -8e-5,4.19437 -1.92303,6.29102 -5.76762,6.29102 z m 77.06836,0 c -3.84498,0 -5.76786,-2.2725 -5.76758,-6.81641 v -44.04101 c 0,-2.44692 0.35047,-4.19371 1.05078,-5.24219 1.0485,-1.04847 3.14523,-1.57226 6.29102,-1.57227 h 27.26367 c 3.49678,0 5.76904,0.5238 6.8164,1.57227 1.39782,1.04859 2.09571,3.14523 2.09571,6.29102 l -0.002,43.51757 c 8e-5,4.19437 -1.92257,6.29102 -5.76753,6.29102 z M 466.16992,810.99805 c -8.44497,0 -12.66211,-4.923 -12.66211,-14.77149 v -529.6582 c 0,-5.63446 1.05546,-9.50091 3.15821,-11.60547 2.10858,-2.09378 6.32812,-3.16016 12.6621,-3.16016 h 53.81055 c 7.7417,0 12.66859,1.05607 14.77149,3.16016 2.8096,2.81245 4.21679,7.73229 4.21679,14.77149 l 0.01,527.54687 c 0,9.14419 -3.87424,13.7168 -11.60742,13.7168 z" />
      <glyph
         glyph-name=""
         unicode="ð"
         id="glyph195" />
      <glyph
         glyph-name=""
         unicode="ñ"
         id="glyph196" />
      <glyph
         glyph-name=""
         unicode="ò"
         id="glyph197" />
      <glyph
         glyph-name=""
         unicode="ó"
         id="glyph198" />
      <glyph
         glyph-name=""
         unicode="ô"
         id="glyph199"
         d="m 488.36914,946 c -4.43607,0 -8.13577,-0.73974 -11.0957,-2.21875 -2.46587,-1.47902 -4.93062,-3.45066 -7.39649,-5.91602 L 393.69922,870.5625 C 391.23335,868.09715 390,865.87843 390,863.90625 c 0.48919,-1.47901 2.46187,-2.21875 5.91602,-2.21875 h 39.9375 c 2.96007,0 5.17879,0.24797 6.65625,0.74219 1.47759,0.49317 3.69631,1.72509 6.65625,3.69726 l 42.15625,36.97852 c 4.93226,3.94436 8.13582,5.91797 9.61328,5.91797 1.47747,0 3.94417,-1.97361 7.39843,-5.91797 l 39.93555,-36.97852 c 2.46587,-1.97114 4.68459,-3.20502 6.65625,-3.69922 1.97167,-0.49421 4.43642,-0.74023 7.39649,-0.74023 h 42.89648 c 7.39761,0 7.89214,2.9583 1.48242,8.875 l -75.4375,68.04102 c -1.97166,1.47952 -3.94435,2.95849 -5.91601,4.4375 C 523.37296,945.0132 520.66202,946 517.21289,946 Z m 13.00195,-134.29297 c -51.14645,0 -96.15481,-11.93574 -135.02539,-35.80469 -38.87165,-23.8682 -69.55817,-57.28314 -92.0625,-100.24609 -21.82278,-42.28079 -32.73437,-91.72261 -32.73437,-148.32422 0,-54.55513 10.57063,-102.97327 31.71094,-145.25391 21.82292,-41.59906 52.16847,-74.33327 91.03906,-98.20117 39.55305,-23.18559 84.90433,-34.77734 136.05078,-34.77734 51.82785,0 96.8362,11.93257 135.02539,35.80078 38.87163,23.86775 69.21809,56.6021 91.04102,98.20117 21.82172,42.28049 32.73242,90.69862 32.73242,145.25391 0,55.23775 -10.9107,103.99836 -32.73242,146.2793 -21.14151,42.96293 -51.147,76.37698 -90.01758,100.24609 -38.18934,24.55035 -83.1995,36.82617 -135.02735,36.82617 z m 0.006,-63.42187 c 35.46161,0 65.8091,-8.86588 91.04102,-26.59571 25.23207,-17.73027 44.66707,-42.96355 58.30664,-75.69726 13.63461,-32.05201 20.45898,-70.58163 20.45898,-115.58985 0,-45.00927 -6.81925,-83.87956 -20.45898,-116.61328 -12.95712,-32.05201 -32.05309,-56.94384 -57.28516,-74.67383 -25.23191,-17.04976 -55.57761,-25.57226 -91.03906,-25.57226 -35.46144,0 -66.14993,8.52356 -92.06445,25.57226 -25.91334,17.72999 -46.03042,42.9637 -60.35156,75.69727 -13.64379,32.73372 -20.45899,71.26303 -20.45899,115.58984 0,45.00822 6.82032,83.53784 20.45899,115.58985 14.32114,32.73371 34.43822,57.96699 60.35156,75.69726 25.91452,17.73089 56.26203,26.59571 91.04101,26.59571 z" />
      <glyph
         glyph-name=""
         unicode="õ"
         id="glyph200" />
      <glyph
         glyph-name=""
         unicode="ö"
         id="glyph201" />
      <glyph
         glyph-name=""
         unicode="÷"
         id="glyph202" />
      <glyph
         glyph-name=""
         unicode="ø"
         id="glyph203" />
      <glyph
         glyph-name=""
         unicode="ù"
         id="glyph204"
         d="m 433.94922,944.99609 c -2.10448,0.0751 -3.75684,-1.08928 -4.95899,-3.49414 h -0.004 l -9.01758,-27.05664 c -1.60329,-5.21078 0.60069,-8.81807 6.61328,-10.82226 l 137.08399,-41.48633 c 2.80804,-0.40155 4.81246,-0.40155 6.01367,0 1.6064,0.80148 2.8095,2.40545 3.60937,4.81055 l 4.8086,13.22656 c 1.60285,4.40918 0.80153,7.21557 -2.4043,8.41797 l -139.48818,55.91601 c -0.80175,0.30057 -1.55437,0.46326 -2.25586,0.48828 z m 54.06055,-132.85547 c -5.8006,0.0731 -11.66452,0.03 -17.55079,-0.10156 -1.81742,-0.0439 -3.2492,-1.7231 -3.20507,-3.77148 l 1.19336,-187.79297 c -0.76737,-1.82855 -1.13868,-4.75013 -1.13868,-8.78711 V 351.48828 c -27.67835,3.38259 -52.4914,10.41172 -74.23437,21.3125 -31.5272,16.55481 -55.4607,39.117 -71.88086,67.71094 -16.42077,29.34595 -24.64063,63.57035 -24.64063,102.69922 0,36.11681 7.88117,67.38415 23.64844,93.7207 15.76156,26.3358 38.74689,50.3928 68.96094,72.21484 3.28143,2.25053 4.9043,4.14738 4.9043,5.65625 0.7016,2.26221 0.33157,5.28298 -0.99414,9.04297 l -15.76563,48.53907 c -1.47497,3.96549 -4.22056,5.75747 -8.2793,5.46484 -1.3535,-0.10237 -2.86153,-0.43236 -4.50781,-0.99219 -17.07822,-11.28725 -33.49001,-24.44544 -49.25391,-39.49414 -15.76433,-15.04928 -29.57677,-32.69488 -41.39843,-53.01172 -11.82281,-19.56391 -21.32627,-41.79426 -28.55274,-66.625 -6.57412,-24.83147 -9.83984,-52.27927 -9.83984,-82.37695 0,-55.68292 11.15641,-104.96002 33.48828,-147.84961 22.9886,-42.13814 54.52557,-75.2332 94.5918,-99.3125 40.72369,-24.07841 87.66889,-36.14062 140.87109,-36.14062 53.85951,0 101.16754,12.06221 141.89063,36.14062 15.37714,9.37642 29.48698,19.98611 42.33398,31.82617 0.009,0.009 0.015,0.0293 0.0293,0.0293 0.0439,0.0584 0.11762,0.10172 0.16601,0.16015 6.95577,5.6318 13.71553,11.93705 20.27344,19.26758 38.96253,43.54836 63.83065,102.36981 69.69922,177.88868 9.06831,91.27457 -20.20553,167.90491 -75.3418,220.76757 -51.71935,49.5872 -128.47528,72.9561 -215.4707,74.00586 z m 55.66211,-85.69921 c 3.49148,-0.50282 39.61331,-5.27398 78.82812,-29.46289 41.07287,-25.3334 81.49466,-69.73989 80.58594,-149.28711 -1.12111,-98.07687 -42.1144,-147.77711 -82.88282,-173.70118 -39.0343,-24.82165 -74.54975,-26.28898 -77.77929,-26.45898 z" />
      <glyph
         glyph-name=""
         unicode="ú"
         id="glyph205" />
      <glyph
         glyph-name=""
         unicode="û"
         id="glyph206"
         d="m 488.36914,946 c -4.43607,0 -8.13577,-0.73974 -11.0957,-2.21875 -2.46587,-1.47902 -4.93062,-3.45066 -7.39649,-5.91602 L 393.69922,870.5625 C 391.23335,868.09715 390,865.87843 390,863.90625 c 0.48919,-1.47901 2.46187,-2.21875 5.91602,-2.21875 h 39.9375 c 2.96007,0 5.17879,0.24797 6.65625,0.74219 1.47759,0.49317 3.69631,1.72509 6.65625,3.69726 l 42.15625,36.97852 c 4.93226,3.94436 8.13582,5.91797 9.61328,5.91797 1.47747,0 3.94417,-1.97361 7.39843,-5.91797 l 39.93555,-36.97852 c 2.46587,-1.97114 4.68459,-3.20502 6.65625,-3.69922 1.97167,-0.49421 4.43642,-0.74023 7.39649,-0.74023 h 42.89648 c 7.39761,0 7.89214,2.9583 1.48242,8.875 l -75.4375,68.04102 c -1.97166,1.47952 -3.94435,2.95849 -5.91601,4.4375 C 523.37296,945.0132 520.66202,946 517.21289,946 Z m -0.35937,-133.85938 c -5.8006,0.0731 -11.66452,0.03 -17.55079,-0.10156 -1.81742,-0.0439 -3.2492,-1.7231 -3.20507,-3.77148 l 1.19336,-187.79297 c -0.76737,-1.82855 -1.13868,-4.75013 -1.13868,-8.78711 V 351.48828 c -27.67835,3.38259 -52.4914,10.41172 -74.23437,21.3125 -31.5272,16.55481 -55.4607,39.117 -71.88086,67.71094 -16.42077,29.34595 -24.64063,63.57035 -24.64063,102.69922 0,36.11681 7.88117,67.38415 23.64844,93.7207 15.76156,26.3358 38.74689,50.3928 68.96094,72.21484 3.28143,2.25053 4.9043,4.14738 4.9043,5.65625 0.7016,2.26221 0.33157,5.28298 -0.99414,9.04297 l -15.76563,48.53907 c -1.47497,3.96549 -4.22056,5.75747 -8.2793,5.46484 -1.3535,-0.10237 -2.86153,-0.43236 -4.50781,-0.99219 -17.07822,-11.28725 -33.49001,-24.44544 -49.25391,-39.49414 -15.76433,-15.04928 -29.57677,-32.69488 -41.39843,-53.01172 -11.82281,-19.56391 -21.32627,-41.79426 -28.55274,-66.625 -6.57412,-24.83147 -9.83984,-52.27927 -9.83984,-82.37695 0,-55.68292 11.15641,-104.96002 33.48828,-147.84961 22.9886,-42.13814 54.52557,-75.2332 94.5918,-99.3125 40.72369,-24.07841 87.66889,-36.14062 140.87109,-36.14062 53.85951,0 101.16754,12.06221 141.89063,36.14062 15.37714,9.37642 29.48698,19.98611 42.33398,31.82617 0.009,0.009 0.015,0.0293 0.0293,0.0293 0.0439,0.0584 0.11762,0.10172 0.16601,0.16015 6.95577,5.6318 13.71553,11.93705 20.27344,19.26758 38.96253,43.54836 63.83065,102.36981 69.69922,177.88868 9.06831,91.27457 -20.20553,167.90491 -75.3418,220.76757 -51.71935,49.5872 -128.47528,72.9561 -215.4707,74.00586 z m 55.66211,-85.69921 c 3.49148,-0.50282 39.61331,-5.27398 78.82812,-29.46289 41.07287,-25.3334 81.49466,-69.73989 80.58594,-149.28711 -1.12111,-98.07687 -42.1144,-147.77711 -82.88282,-173.70118 -39.0343,-24.82165 -74.54975,-26.28898 -77.77929,-26.45898 z" />
      <glyph
         glyph-name=""
         unicode="ü"
         id="glyph207"
         d="M 443.76758,946 C 439.92298,946 438,943.7275 438,939.18359 v -44.04101 c 0,-2.44692 0.52293,-4.19371 1.57031,-5.24219 1.04953,-1.04847 2.97214,-1.57226 5.76758,-1.57227 h 27.78906 c 3.49651,0 5.76708,0.5238 6.81446,1.57227 1.39771,1.04859 2.09765,3.14523 2.09765,6.29102 l 0.002,43.51757 c -8e-5,4.19437 -1.92303,6.29102 -5.76762,6.29102 z m 77.06836,0 c -3.84498,0 -5.76786,-2.2725 -5.76758,-6.81641 v -44.04101 c 0,-2.44692 0.35047,-4.19371 1.05078,-5.24219 1.0485,-1.04847 3.14523,-1.57226 6.29102,-1.57227 h 27.26367 c 3.49678,0 5.76904,0.5238 6.8164,1.57227 1.39782,1.04859 2.09571,3.14523 2.09571,6.29102 l -0.002,43.51757 c 8e-5,4.19437 -1.92257,6.29102 -5.76753,6.29102 z M 488.00977,812.14062 c -5.8006,0.0731 -11.66452,0.03 -17.55079,-0.10156 -1.81742,-0.0439 -3.2492,-1.7231 -3.20507,-3.77148 l 1.19336,-187.79297 c -0.76737,-1.82855 -1.13868,-4.75013 -1.13868,-8.78711 V 351.48828 c -27.67835,3.38259 -52.4914,10.41172 -74.23437,21.3125 -31.5272,16.55481 -55.4607,39.117 -71.88086,67.71094 -16.42077,29.34595 -24.64063,63.57035 -24.64063,102.69922 0,36.11681 7.88117,67.38415 23.64844,93.7207 15.76156,26.3358 38.74689,50.3928 68.96094,72.21484 3.28143,2.25053 4.9043,4.14738 4.9043,5.65625 0.7016,2.26221 0.33157,5.28298 -0.99414,9.04297 l -15.76563,48.53907 c -1.47497,3.96549 -4.22056,5.75747 -8.2793,5.46484 -1.3535,-0.10237 -2.86153,-0.43236 -4.50781,-0.99219 -17.07822,-11.28725 -33.49001,-24.44544 -49.25391,-39.49414 -15.76433,-15.04928 -29.57677,-32.69488 -41.39843,-53.01172 -11.82281,-19.56391 -21.32627,-41.79426 -28.55274,-66.625 -6.57412,-24.83147 -9.83984,-52.27927 -9.83984,-82.37695 0,-55.68292 11.15641,-104.96002 33.48828,-147.84961 22.9886,-42.13814 54.52557,-75.2332 94.5918,-99.3125 40.72369,-24.07841 87.66889,-36.14062 140.87109,-36.14062 53.85951,0 101.16754,12.06221 141.89063,36.14062 15.37714,9.37642 29.48698,19.98611 42.33398,31.82617 0.009,0.009 0.015,0.0293 0.0293,0.0293 0.0439,0.0584 0.11762,0.10172 0.16601,0.16015 6.95577,5.6318 13.71553,11.93705 20.27344,19.26758 38.96253,43.54836 63.83065,102.36981 69.69922,177.88868 9.06831,91.27457 -20.20553,167.90491 -75.3418,220.76757 -51.71935,49.5872 -128.47528,72.9561 -215.4707,74.00586 z m 55.66211,-85.69921 c 3.49148,-0.50282 39.61331,-5.27398 78.82812,-29.46289 41.07287,-25.3334 81.49466,-69.73989 80.58594,-149.28711 -1.12111,-98.07687 -42.1144,-147.77711 -82.88282,-173.70118 -39.0343,-24.82165 -74.54975,-26.28898 -77.77929,-26.45898 z" />
      <glyph
         glyph-name=""
         unicode="ý"
         id="glyph208" />
      <glyph
         glyph-name=""
         unicode="þ"
         id="glyph209" />
      <glyph
         glyph-name=""
         unicode="ÿ"
         id="glyph210" />
      <glyph
         glyph-name=""
         unicode="Ā"
         id="glyph211" />
      <glyph
         glyph-name=""
         unicode="ā"
         id="glyph212" />
    </font>
</defs>
</svg>
